Сегодня идет свободное скачивание без начисления Download

[Profileschool] Дмитрий Шатров | Жанровая съемка в путешествии (2015) PCRec

Ответить на тему
 
Автор
Сообщение

Omen ®

Стаж: 5 лет 9 месяцев

Сообщений: 184393

Торрент-статистика

Пост 06-Апр-2015 16:23

[Цитировать]

[Profileschool] Дмитрий Шатров
Жанровая съемка в путешествии
- Автор (режиссер): Дмитрий Шатров
Жанр: Съемка, фотография
Продолжительность: 03:33:17
Качество видео: PCRec
Видеокодек: AVC (H.264)
Битрейт видео: ~161 Kbps, 15.173 fps
Размер кадра: 1280x608
Аудиокодек: AAC 2.0
Битрейт аудио: 171 Kbps(VBR), 44100Hz, 2 channels
Описание:
Это онлайн мастер-класс, посвященный различным аспектам жанровой съемки в путешествии. Как с близкого расстояния снять незнакомого вам человека и не получить по голове?
Как сделать «живой» кадр в различных, зачастую непривычных условиях – от шумной улицы до горной тропы? И что это вообще такое – «живой» кадр, когда фотограф невидим для зрителя? На примере жанровых сцен будут рассмотрены технические и художественные приемы построения кадра, даны практические советы и разобраны нюансы работы в той или иной съемочной ситуации.
Как быть, если вы не говорите на местном языке, а ваш оппонент не знает ни одного языка, знакомого вам? Как найти помошника из местного населения? И прочее, прочее, включая нюансы организации самостоятельных поездок и экспедиций. Мастер-класс проходит в форме диалога с аудиторией, с показом работ и подробным разбором вышеизложенных пунктов.

МедиаИнфо:

General
Complete name : S:\Дмитрий Шатров - Жанровая съемка в путешествии (2015)\1.mp4
Format : MPEG-4
Format profile : Base Media / Version 2
Codec ID : mp42
File size : 179 MiB
Duration : 1h 14mn
Overall bit rate mode : Variable
Overall bit rate : 336 Kbps
Encoded date : UTC 2015-03-21 00:52:37
Tagged date : UTC 2015-03-21 00:52:37
Video
ID : 2
Format : AVC
Format/Info : Advanced Video Codec
Format profile : [url=mailto:Main@L3.1]Main@L3.1[/url]
Format settings, CABAC : Yes
Format settings, ReFrames : 4 frames
Format settings, GOP : M=2, N=90
Codec ID : avc1
Codec ID/Info : Advanced Video Coding
Duration : 1h 14mn
Source duration : 1h 14mn
Bit rate : 161 Kbps
Width : 1 280 pixels
Height : 608 pixels
Display aspect ratio : 2.105
Original display aspect ratio : 2.093
Frame rate mode : Variable
Frame rate : 15.173 fps
Minimum frame rate : 4.000 fps
Maximum frame rate : 66.667 fps
Standard : NTSC
Color space : YUV
Chroma subsampling : 4:2:0
Bit depth : 8 bits
Scan type : Progressive
Bits/(Pixel*Frame) : 0.014
Stream size : 85.8 MiB (48%)
Source stream size : 85.8 MiB (48%)
Language : English
Encoded date : UTC 2015-03-21 00:52:39
Tagged date : UTC 2015-03-21 00:52:39
mdhd_Duration : 4473160
Audio
ID : 1
Format : AAC
Format/Info : Advanced Audio Codec
Format profile : LC
Codec ID : 40
Duration : 1h 14mn
Bit rate mode : Variable
Bit rate : 171 Kbps
Maximum bit rate : 261 Kbps
Channel count : 2 channels
Channel positions : Front: L R
Sampling rate : 44.1 KHz
Compression mode : Lossy
Stream size : 91.1 MiB (51%)
Language : English
Encoded date : UTC 2015-03-21 00:52:38
Tagged date : UTC 2015-03-21 00:52:38
Скриншоты:
       
Вне форума [Профиль] [ЛС]
Похожие темы
Форум Тема Автор Торрент Отв. Посл. сообщение
./templates/default/images/folder_dl.gif Обучающее видео [Profileschool] Алексей Шадрин | Калибровка принтера: от А до Я (2015) PCRec Omen
1 | 0

0 | 1519

76

2015-03-25 21:19
Omen Последнее
Показать сообщения:    
Ответить на тему

Текущее время: Сегодня 04:38

Часовой пояс: GMT + 3



Вы не можете начинать темы
Вы не можете отвечать на сообщения
Вы не можете редактировать свои сообщения
Вы не можете удалять свои сообщения
Вы не можете голосовать в опросах
Вы не можете прикреплять файлы к сообщениям
Вы не можете скачивать файлы