Today is a free download without charge Download

Сумо. Мартовский турнир 2014: Хару Басё (Осака) / Haru Basho (Osaka) (2014) SATRip

Reply to topic
 
Author
Message

NarDok ®

Longevity: 7 years 9 months

Posts: 914

Торрент-статистика

Post 15-Feb-2015 21:28

[Quote]

Мартовский турнир 2014: Хару Басё (Осака) / Haru Basho (Osaka) (2014) SATRip- Режиссер / Телекомпания: Боец-ТВ
Жанр: Телепередача, Спорт
Описание:
Сумо. Второй турнир профессионального сумо 2014-го года (Хару басё, префектура Осака).
Официальные турниры профессионалов (басё) проводятся 6 раз в год, начинаются во второе воскресенье нечетного месяца и длятся 15 дней.
Запись с телеканала "Боец ТВ". Бесподобный комментарий Дениса Исаева.
Продолжительность: 05:16:09
Качество видео: SATRip
Видеокодек: MPEG-4 AVC/H.264
Битрейт видео: ~1250 Kb/s
Размер кадра: 640 x 456
Аудиокодек: MP2
Битрейт аудио: 192 kb/s

Mediainfo:

Код:
Общее
Формат                                   : Matroska
Версия формата                           : Version 4 / Version 2
Размер файла                             : 648 Мбайт
Продолжительность                        : 1 ч. 2 м.
Общий поток                              : 1445 Кбит/сек
Дата кодирования                         : UTC 2014-04-30 03:23:54
Программа кодирования                    : mkvmerge v6.3.0 ('You can't stop me!') built on Jun 28 2013 20:09:41
Библиотека кодирования                   : libebml v1.3.0 + libmatroska v1.4.0
Видео
Идентификатор                            : 1
Формат                                   : AVC
Формат/Информация                        : Advanced Video Codec
Профиль формата                          : [url=mailto:High@L3.0]High@L3.0[/url]
Параметр CABAC формата                   : Да
Параметр ReFrames формата                : 5 кадров
Идентификатор кодека                     : V_MPEG4/ISO/AVC
Продолжительность                        : 1 ч. 2 м.
Битрейт                                  : 1251 Кбит/сек
Ширина                                   : 720 пикселей
Высота                                   : 560 пикселей
Соотношение сторон                       : 1,402
Соотношение сторон в оригинале           : 1,403
Режим частоты кадров                     : Постоянный
Частота кадров                           : 25,000 кадров/сек
Цветовое пространство                    : YUV
Субдискретизация насыщенности            : 4:2:0
Битовая глубина                          : 8 бит
Тип развёртки                            : Прогрессивная
Бит/(Пиксели*Кадры)                      : 0.124
Размер потока                            : 549 Мбайт (85%)
Библиотека кодирования                   : x264 core 133 r2334 a3ac64b
Настройки программы                      : cabac=1 / ref=5 / deblock=1:-1:-1 / analyse=0x3:0x113 / me=umh / subme=8 / psy=1 / psy_rd=1.00:0.15 / mixed_ref=1 / me_range=16 / chroma_me=1 / trellis=1 / 8x8dct=1 / cqm=0 / deadzone=21,11 / fast_pskip=1 / chroma_qp_offset=-3 / threads=3 / lookahead_threads=1 / sliced_threads=0 / nr=0 / decimate=1 / interlaced=0 / bluray_compat=0 / constrained_intra=0 / bframes=3 / b_pyramid=2 / b_adapt=2 / b_bias=0 / direct=3 / weightb=1 / open_gop=0 / weightp=2 / keyint=250 / keyint_min=25 / scenecut=40 / intra_refresh=0 / rc_lookahead=50 / rc=2pass / mbtree=1 / bitrate=1251 / ratetol=1.0 / qcomp=0.60 / qpmin=0 / qpmax=69 / qpstep=4 / cplxblur=20.0 / qblur=0.5 / ip_ratio=1.40 / aq=1:1.00
Default                                  : Да
Forced                                   : Нет
Аудио
Идентификатор                            : 2
Формат                                   : MPEG Audio
Версия формата                           : Version 1
Профиль формата                          : Layer 2
Идентификатор кодека                     : A_MPEG/L2
Идентификатор кодека/Подсказка           : MP2
Продолжительность                        : 1 ч. 2 м.
Вид битрейта                             : Постоянный
Битрейт                                  : 192 Кбит/сек
Каналы                                   : 2 канала
Частота                                  : 48,0 КГц
Метод сжатия                             : С потерями
Задержка видео                           : 6 мс.
Размер потока                            : 86,1 Мбайт (13%)
Язык                                     : Russian
Default                                  : Да
Forced                                   : Нет
Скриншоты:
       

_________________

Other forum [Profile] [PM]

Dracula

Longevity: 6 years

Posts: 10652

Торрент-статистика

Post 21-Sep-2015 20:00 (after 7 months 5 days)

Топик был перенесен из форума Боевые единоборства в форум Mixed Martial Arts


Геннадич
 
Display posts from previous:    
Reply to topic

The time now is: Today 01:38

All times are GMT + 3 Hours



You cannot post new topics in this forum
You cannot reply to topics in this forum
You cannot edit your posts in this forum
You cannot delete your posts in this forum
You cannot vote in polls in this forum
You cannot attach files in this forum
You cannot download files in this forum