Today is a free download without charge Download

Baccara - The Collection (1998) [FLAC|Lossless]<Disco>

Reply to topic
 
Author
Message

sashau ®

Gender:

Longevity: 7 years 10 months

Posts: 3497

Торрент-статистика

Post 24-Dec-2014 14:26

[Quote]

Baccara - The Collection - Лейбл: BMG
№ по каталогу: 74321 56568 2
Источник: Original CD (собственный рип)
Год: 1998
Жанр: Disco
Продолжительность: 01:14:56
Кодек: FLAC
Битрейт: Lossless
Тип рипа: image+.cue
Треклист:
1.Sorry, i'm A Lady 3:38
2.Heart, Body And Soul 4:09
3.Spend The Night 3:07
4.Cara Mia 2:57
5.Woman To Woman 3:36
6.Yes Sir, I Can Boogie 4:34
7.Boogaloo 2:38
8.Colorado 3:30
9.Darling 5:25
10.Ohio 3:04
11.Parlez-vous francais? 4:25
12.Yummy, Yummy, Yummy 3:34
13.Ay, Ay Sailor 3:48
14.(Baby, Why Don't You Reach Out?) Light My Fire 4:44
15.Mucho, Mucho 3:25
16.The Devil Sent You To Lorado 4:03
17.My Kisses Need A Cavalier 4:53
18.Body-Talk 4:38
19.Bad Boys 4:25

Отчёт ЕАС&#58;

Код:
xact Audio Copy V1.0 beta 3 from 29. August 2011
EAC extraction logfile from 21. December 2014, 21:54
Baccara / The Collection
Used drive  : PIONEER BD-RW   BDR-207M   Adapter: 0  ID: 2
Read mode               : Secure
Utilize accurate stream : Yes
Defeat audio cache      : Yes
Make use of C2 pointers : No
Read offset correction                      : 667
Overread into Lead-In and Lead-Out          : No
Fill up missing offset samples with silence : Yes
Delete leading and trailing silent blocks   : No
Null samples used in CRC calculations       : Yes
Used interface                              : Native Win32 interface for Win NT & 2000
Used output format              : User Defined Encoder
Selected bitrate                : 1024 kBit/s
Quality                         : High
Add ID3 tag                     : No
Command line compressor         : C:\Program Files (x86)\Exact Audio Copy\Flac\flac.exe
Additional command line options : -V -8 -T "Date=%year%" -T "Genre=%genre%" %source%
TOC of the extracted CD
     Track |   Start  |  Length  | Start sector | End sector
    ---------------------------------------------------------
        1  |  0:00.32 |  3:39.13 |        32    |    16469
        2  |  3:39.45 |  4:11.07 |     16470    |    35301
        3  |  7:50.52 |  3:09.08 |     35302    |    49484
        4  | 10:59.60 |  2:58.47 |     49485    |    62881
        5  | 13:58.32 |  3:30.05 |     62882    |    78636
        6  | 17:28.37 |  4:35.45 |     78637    |    99306
        7  | 22:04.07 |  2:40.48 |     99307    |   111354
        8  | 24:44.55 |  3:33.25 |    111355    |   127354
        9  | 28:18.05 |  5:26.27 |    127355    |   151831
       10  | 33:44.32 |  3:05.40 |    151832    |   165746
       11  | 36:49.72 |  4:30.10 |    165747    |   186006
       12  | 41:20.07 |  3:35.25 |    186007    |   202156
       13  | 44:55.32 |  3:50.40 |    202157    |   219446
       14  | 48:45.72 |  4:45.05 |    219447    |   240826
       15  | 53:31.02 |  3:26.58 |    240827    |   256334
       16  | 56:57.60 |  4:03.42 |    256335    |   274601
       17  | 61:01.27 |  4:52.35 |    274602    |   296536
       18  | 65:53.62 |  4:38.08 |    296537    |   317394
       19  | 70:31.70 |  4:23.62 |    317395    |   337181
Range status and errors
Selected range
     Filename C:\Users\Jean\Music\Baccara - The Collection.wav
     Peak level 99.0 %
     Extraction speed 8.0 X
     Range quality 100.0 %
     Test CRC BCF3670A
     Copy CRC BCF3670A
     Copy OK
No errors occurred
AccurateRip summary
Track  1  accurately ripped (confidence 3)  [56962D66]  (AR v2)
Track  2  accurately ripped (confidence 3)  [20C0DA5A]  (AR v2)
Track  3  accurately ripped (confidence 3)  [9D7D5179]  (AR v2)
Track  4  accurately ripped (confidence 3)  [A1B60B7B]  (AR v2)
Track  5  accurately ripped (confidence 3)  [2BE7598B]  (AR v2)
Track  6  accurately ripped (confidence 3)  [FA228A28]  (AR v2)
Track  7  accurately ripped (confidence 3)  [7700B986]  (AR v2)
Track  8  accurately ripped (confidence 3)  [3CB76D98]  (AR v2)
Track  9  accurately ripped (confidence 2)  [80830356]  (AR v2)
Track 10  accurately ripped (confidence 2)  [8FD06A6B]  (AR v2)
Track 11  accurately ripped (confidence 3)  [6EBFB4CF]  (AR v2)
Track 12  accurately ripped (confidence 3)  [951FA824]  (AR v2)
Track 13  accurately ripped (confidence 3)  [A05D1EC9]  (AR v2)
Track 14  accurately ripped (confidence 3)  [CD8830B7]  (AR v2)
Track 15  accurately ripped (confidence 3)  [6D0CA4F6]  (AR v2)
Track 16  accurately ripped (confidence 3)  [9DD16BCD]  (AR v2)
Track 17  accurately ripped (confidence 3)  [E4E861F2]  (AR v2)
Track 18  accurately ripped (confidence 3)  [F31AE1A0]  (AR v2)
Track 19  accurately ripped (confidence 3)  [07EC7064]  (AR v2)
All tracks accurately ripped
End of status report
==== Log checksum 76C8613FF6CDEDB9CD4F4ADA7E9B03B2D238314BBB32DCEFD010EF86DB93B612 ====

Отчёт auCDtect Task manager&#58;

Код:
-----------------------
DON'T MODIFY THIS FILE
-----------------------
PERFORMER: auCDtect Task Manager, ver. 1.6.0 RC1 build 1.6.0.1
Copyright (c) 2008-2010 y-soft. All rights reserved
http://y-soft.org
ANALYZER: auCDtect: CD records authenticity detector, version 0.8.2
Copyright (c) 2004 Oleg Berngardt. All rights reserved.
Copyright (c) 2004 Alexander Djourik. All rights reserved.
FILE: Baccara - The Collection.flac
  Size: 511181462 Hash: 24039AE54B2FB4166AA991BE8444D5F0 Accuracy: -m0
  Conclusion: CDDA 99%
  Signature: B8CA39BBD5C22690CBE9E82A5B343BA7C4C0CEE6
Other forum [Profile] [PM]
Display posts from previous:    
Reply to topic

The time now is: Today 14:47

All times are GMT + 3 Hours



You cannot post new topics in this forum
You cannot reply to topics in this forum
You cannot edit your posts in this forum
You cannot delete your posts in this forum
You cannot vote in polls in this forum
You cannot attach files in this forum
You cannot download files in this forum