Today is a free download without charge Download

А. Шуров и Н. Рыкунин - Манечка, Заело (1954) [FLAC 2.0 (Dual Mono) 24/48|tracks (Vinyl-Rip)]<Retro / Soviet variety>

Reply to topic
 
Author
Message

sashau ®

Gender:

Longevity: 7 years 8 months

Posts: 3497

Торрент-статистика

Post 06-Dec-2014 14:56

[Quote]

А. Шуров и Н. Рыкунин - Манечка, Заело
Апрелевский з-д 23746-7 (78 об/мин)
-
Год: 1954
Жанр: Retro / Soviet variety
Продолжительность: 00:06:04
Кодек: FLAC
Битрейт: Lossless
Тип рипа: Tracks
Треклист:
Сторона А: Манечка
Сторона В: Заело

MediaInfo&#58;

Код:
Общее
Полное имя                               : E:\А. Шуров и Н. Рыкунин - Манечка_1954\01. Манечка.flac
Формат                                   : FLAC
Формат/Информация                        : Free Lossless Audio Codec
Размер файла                             : 13,8 Мбайт
Продолжительность                        : 2 м. 28 с.
Режим общего битрейта                    : Переменный
Общий поток                              : 779 Кбит/сек
Альбом                                   : Г 23746-7
Трек                                     : Манечка
Трек/Положение                           : 1
Трек/Всего                               : 2
Исполнитель                              : Александр Шуров и Николай Рыкунин
Жанр                                     : Retro
Дата записи                              : 1954
Аудио
Формат                                   : FLAC
Формат/Информация                        : Free Lossless Audio Codec
Продолжительность                        : 2 м. 28 с.
Вид битрейта                             : Переменный
Битрейт                                  : 779 Кбит/сек
Каналы                                   : 2 канала
Частота                                  : 48,0 КГц
Битовая глубина                          : 24 бит
Размер потока                            : 13,8 Мбайт (100%)
Библиотека кодирования                   : libFLAC 1.2.1 (UTC 2007-09-17)
Код:
Общее
Полное имя                               : E:\А. Шуров и Н. Рыкунин - Манечка_1954\02. Заело.flac
Формат                                   : FLAC
Формат/Информация                        : Free Lossless Audio Codec
Размер файла                             : 19,9 Мбайт
Продолжительность                        : 3 м. 35 с.
Режим общего битрейта                    : Переменный
Общий поток                              : 775 Кбит/сек
Альбом                                   : Г 23746-7
Трек                                     : Заело
Трек/Положение                           : 2
Трек/Всего                               : 2
Исполнитель                              : Александр Шуров и Николай Рыкунин
Жанр                                     : Retro
Дата записи                              : 1954
Аудио
Формат                                   : FLAC
Формат/Информация                        : Free Lossless Audio Codec
Продолжительность                        : 3 м. 35 с.
Вид битрейта                             : Переменный
Битрейт                                  : 775 Кбит/сек
Каналы                                   : 2 канала
Частота                                  : 48,0 КГц
Битовая глубина                          : 24 бит
Размер потока                            : 19,9 Мбайт (100%)
Библиотека кодирования                   : libFLAC 1.2.1 (UTC 2007-09-17)

Дополнительная информация&#58;

Пластинка моя, рип тоже..., в раздаче присутствуют фотографии пятаков
Код класса состояния винила: VG+
Устройство воспроизведения: Audio-technica LP120
Головка звукоснимателя: Grado 78С
АЦП: ESI Juli@
Программа-оцифровщик: Adobe audition 3.0
Обработка: Чистка пауз, уборка щелчков

уровень, спектр, ачх&#58;







Other forum [Profile] [PM]

andi

Longevity: 8 years 10 months

Posts: 15

Торрент-статистика

Post 06-Dec-2014 19:34 (after 4 hours)

[Quote]

54 год.
а ведь до сих пор актуально... Сумашедшая девочка
Other forum [Profile] [PM]
Display posts from previous:    
Reply to topic

The time now is: Today 07:53

All times are GMT + 3 Hours



You cannot post new topics in this forum
You cannot reply to topics in this forum
You cannot edit your posts in this forum
You cannot delete your posts in this forum
You cannot vote in polls in this forum
You cannot attach files in this forum
You cannot download files in this forum