Today is a free download without charge Download

Падение запада (Галина Царёва)[2013.,Документальный] DVD5

Reply to topic
 
Author
Message

sashau ®

Gender:

Longevity: 7 years 4 months

Posts: 3497

Торрент-статистика

Post 13-Aug-2014 13:23

[Quote]

Падение запада- Режиссер / Телекомпания: Галина Царёва / Студия "Слово"
Год выпуска: 2013
Жанр: Документальный
Описание:
Сегодня в России нам пытаются навязать различные формы безумия, которые уже давно считаются нормой в западных странах: эвтаназия стариков, однополые браки, разрушение института семьи, секспросвет в школе и в детсадах, толерантность ко всем видам извращений.
Так в Швеции, руководство одной из престижных гимназий распорядилось открыть еще одну, дополнительную раздевалку для детей, не определившихся со своим полом. Таким способом провоцируют терпимость к различным сексуальным порокам. Педерасты и лесбиянки, бисексуалы и транссексуалы - теперь всё это называется просто «друзья».
Продолжительность: 03:01:21
Качество видео: DVD5
Видеокодек: MPEG 2, PAL
Битрейт видео: ~3144 Кбит/сек
Размер кадра: 720/576
Аудиокодек: AC3 2.0
Битрейт аудио: 192 Кбит/сек, 48.0 КГц

М.И.

Общее
Полное имя : F:\Падение запада\видео\VTS_01_1.VOB
Формат : MPEG-PS
Размер файла : 1024 Мбайт
Продолжительность : 42 м.
Общий поток : 3404 Кбит/сек
Видео
Идентификатор : 224 (0xE0)
Формат : MPEG Video
Версия формата : Version 2
Профиль формата : Main@Main
Параметр BVOP формата : Да
Параметр матрицы формата : По умолчанию
Параметры GOP формата : M=3, N=12
Продолжительность : 42 м.
Вид битрейта : Переменный
Битрейт : 3144 Кбит/сек
Номинальный битрейт : 8000 Кбит/сек
Ширина : 720 пикс.
Высота : 576 пикс.
Соотношение сторон : 4:3
Частота кадров : 25,000 кадр/сек
Стандарт вещания : PAL
Цветовое пространство : YUV
Подвыборка цветности : 4:2:0
Битовая глубина : 8 бит
Тип развёртки : Чересстрочная
Порядок развёртки : Нижнее поле первое
Метод сжатия : С потерями
Бит/(Пиксели*Кадры) : 0.303
Размер потока : 946 Мбайт (92%)
Аудио
Идентификатор : 189 (0xBD)-128 (0x80)
Формат : AC-3
Формат/Информация : Audio Coding 3
Расширение режима : CM (complete main)
Режим смешивания : DVD-Video
Продолжительность : 42 м.
Вид битрейта : Постоянный
Битрейт : 192 Кбит/сек
Каналы : 2 канала
Расположение каналов : Front: L R
Частота : 48,0 КГц
Битовая глубина : 16 бит
Метод сжатия : С потерями
Задержка видео : -80 мс.
Размер потока : 57,8 Мбайт (6%)
Скриншоты:
       
Other forum [Profile] [PM]

cfgkjhyhh

Longevity: 1 year

Posts: 1

Торрент-статистика

Post 08-Apr-2018 16:41 (after 3 years 7 months)

[Quote]

Здравствуйте!
Востановите, пожалуйста, закачку
https://dark-os.com/viewtopic.php?t=173034
Падение запада (Галина Царёва) [2013, Православно-познавательный, DVD5]
Желаю всем здоровья!
KXP1971 wrote:

раздаче почти 3,5 года, кто бы ее восстанавливал? По DHT если не качается, могу только выкинуть ее в мусорку
Other forum [Profile] [PM]
Display posts from previous:    
Reply to topic

The time now is: Today 03:45

All times are GMT + 3 Hours



You cannot post new topics in this forum
You cannot reply to topics in this forum
You cannot edit your posts in this forum
You cannot delete your posts in this forum
You cannot vote in polls in this forum
You cannot attach files in this forum
You cannot download files in this forum