Today is a free download without charge Download

(Melodic Rock/AOR) Northern Light (vocals Mikael Erlandsson, Tony Mills, Fergie Frederiksen) - Northern Light (Japanese Edition) - 2005, FLAC (image+.cue), lossless

Reply to topic
 
Author
Message

Omen ®

Longevity: 6 years 8 months

Posts: 181090

Торрент-статистика

Post 30-Mar-2014 17:46

[Quote]

Northern Light / Northern Light (2005)
Жанр: Melodic Rock / AOR
Страна-производитель диска: Japan
Год издания: 2006 (06-6-29)
Издатель (лейбл): Gencross
Номер по каталогу: GCCY-1002
Страна: Norway
Аудиокодек: FLAC (*.flac)
Тип рипа: image+.cue
Битрейт аудио: lossless
Продолжительность: 1 час
Источник (релизер): собственный рип
Наличие сканов в содержимом раздачи: да
Треклист:
1. I Will Follow You - 4:15
2. Don't Turn Away - 4:38
3. While There Still Time - 4:33
4. Still My Hero - 4:52
5. When I Close My Eyes - 4:03
6. Rain Of Tears - 4:45
7. Eye To Eye - 4:17
8. High Above The Sky - 3:53
9. Lay Down Your Defences - 4:17
10. Living On A Lie - 5:13
11. The Story Lives On - 5:55
12. Wherever You Go - 4:05
13. Always Be The One (bonus track for Japan) - 5:11

Лог создания рипа

Exact Audio Copy V1.0 beta 3 from 29. August 2011
EAC extraction logfile from 30. March 2014, 19:06
Northern Light / Northern Light
Used drive : SlimtypeDVD A DS8A5SH Adapter: 0 ID: 1
Read mode : SecureUtilize accurate stream : YesDefeat audio cache : YesMake use of C2 pointers : No
Read offset correction : 6Overread into Lead-In and Lead-Out : NoFill up missing offset samples with silence : YesDelete leading and trailing silent blocks : NoNull samples used in CRC calculations : YesUsed interface : Native Win32 interface for Win NT & 2000
Used output format : User Defined EncoderSelected bitrate : 320 kBit/sQuality : HighAdd ID3 tag : NoCommand line compressor : C:\Program Files (x86)\Exact Audio Copy\Flac\flac.exeAdditional command line options : -V -8 -T "Date=%year%" -T "Genre=%genre%" %source%
TOC of the extracted CD
Track | Start | Length | Start sector | End sector --------------------------------------------------------- 1 | 0:00.01 | 4:15.04 | 1 | 19129 2 | 4:15.05 | 4:38.00 | 19130 | 39979 3 | 8:53.05 | 4:33.57 | 39980 | 60511 4 | 13:26.62 | 4:52.49 | 60512 | 82460 5 | 18:19.36 | 4:03.62 | 82461 | 100747 6 | 22:23.23 | 4:45.54 | 100748 | 122176 7 | 27:09.02 | 4:17.40 | 122177 | 141491 8 | 31:26.42 | 3:53.40 | 141492 | 159006 9 | 35:20.07 | 4:17.61 | 159007 | 178342 10 | 39:37.68 | 5:13.25 | 178343 | 201842 11 | 44:51.18 | 5:55.14 | 201843 | 228481 12 | 50:46.32 | 4:05.25 | 228482 | 246881 13 | 54:51.57 | 5:11.06 | 246882 | 270212
Range status and errors
Selected range
Filename D:\My Music\Northern Light - 2005 Northern Light (Japanese Edition)\Northern Light - Northern Light.wav
Peak level 100.0 % Extraction speed 2.9 X Range quality 99.9 % Test CRC 57C2D4D6 Copy CRC 57C2D4D6 Copy OK
No errors occurred
AccurateRip summary
Track 1 accurately ripped (confidence 1) [15EDF532] (AR v2)Track 2 accurately ripped (confidence 1) [CD9A7E11] (AR v2)Track 3 accurately ripped (confidence 1) [D0F7C60B] (AR v2)Track 4 accurately ripped (confidence 1) [0F59EF40] (AR v2)Track 5 accurately ripped (confidence 1) [CD7A947A] (AR v2)Track 6 accurately ripped (confidence 1) [1A04AF75] (AR v2)Track 7 accurately ripped (confidence 1) [9BF0729F] (AR v2)Track 8 accurately ripped (confidence 1) [58697A6E] (AR v2)Track 9 accurately ripped (confidence 1) [D239DE05] (AR v2)Track 10 accurately ripped (confidence 1) [DBAF6481] (AR v2)Track 11 accurately ripped (confidence 1) [27994E45] (AR v2)Track 12 accurately ripped (confidence 1) [1A6BB8E8] (AR v2)Track 13 accurately ripped (confidence 1) [5CD474E0] (AR v2)
All tracks accurately ripped
End of status report
==== Log checksum 27BE6F9FE48178D92040188CD31F14CE170A7D484E756969B5572621645BCD11 ====

Состав группы

Tor Talle (Overland) - guitar, bass, keyboards
Egil Orvedal (Overland) - keyboards & hammonds
Fredrik Bergh (Street Talk) - keyboards
Rune Gandrud - bass
Roger Allan Ivin - bass
Jango Nilsen - drums
Fergie Frederiksen (Toto, Le Roux, Mecca) - lead & backing vocals (7)
Kimmo Blom (Urban Tale, Heartplay) - lead & backing vocals (4,9)
Tony Mills (TNT, Shy, Serpentine) - lead & backing vocals (3,5)
Peter Sundell (Grand Illusion) - lead & backing vocals (1,2,10)
Rob Moratti (Final Frontier, Saga) - lead & backing vocals (8)
Mikael Erlandsson (Last Autumn's Dream) - lead & backing vocals (11)
Persa (After Eight) - lead & backing vocals (6,12,13)
Marianne Hagen - backing vocals
Rick Barron - backing vocals
Other forum [Profile] [PM]

1958bis

Longevity: 4 years 9 months

Posts: 5

Торрент-статистика

Post 25-Jun-2019 21:24 (after 5 years 2 months)

[Quote]

Пожалуйста, вернитесь на раздачу!
Спасибо заранее!!!
Other forum [Profile] [PM]
Display posts from previous:    
Reply to topic

The time now is: Today 13:04

All times are GMT + 3 Hours



You cannot post new topics in this forum
You cannot reply to topics in this forum
You cannot edit your posts in this forum
You cannot delete your posts in this forum
You cannot vote in polls in this forum
You cannot attach files in this forum
You cannot download files in this forum