Today is a free download without charge Download

(Opera) Keiser Reinhard - Masaniello furioso (Thomas Albert, David Cordier, Barbara Schlick, Dorothea Roschmann) - 1993, FLAC (image+.cue) lossless

Reply to topic
 
Author
Message

Koralina ®

Longevity: 7 years 11 months

Posts: 994

Location: Lithuania

Торрент-статистика

Post 10-Dec-2011 15:23

[Quote]

Keiser Reinhard - Masaniello furioso (Thomas Albert, David Cordier, Barbara Schlick, Dorothea Roschmann)
Жанр: Opera
Страна-производитель диска: EU
Год издания диска: 1993
Издатель (лейбл): CPO
Номер по каталогу: 999 110-2
Дата записи: 1989
Аудиокодек: FLAC
Тип рипа: image+.cue
Битрейт аудио: lossless
Продолжительность: CD1:76’09; CD2:70’44
Источник: собственный рип
Наличие сканов в содержимом раздачи: да
Исполнители:
ействующие лица и исполнители:
Duca d’Arcos - David Cordier
Don Velasco - Wilfried Jochens
Don Antonio - Harry van der Kamp
Don Pedro - Hein Meens
Mariane - Barbara Schlick
Aloysia - Dorothea Röschmann
Masaniello - Michael Schopper
Perrone - Jelle Dreyer
Bassian - Wilfried Mikus
Chor des Forum Alte Musik Bremen
Fiori Musicali
Conductor - Thomas Albert

Треклист

CD1
1. Sinfonia u. Menuet
2. Akt I. Aria: Seliger Stand! /Recitativo: Der is verblend't /Aria: Philomele…
3. Recitativo: Was fur ein Knall /Aria: Gesetze sind des Volkes Seele
4. Recitativo: So geht's dahler /Aria e Ritornello: Sempron, ein braver Cavallier
5. Recitativo: Wie so erbost? /Aria: Ihr knallenden Schlage
6. Recitativo: O she robba regolata /Aria: Al orribil e crudo delito
7. Recitativo: So groß die Schonheit ist /Aria: Es spielet warhlich schone
8. Recitativo: Ich werde dich stetts / Aria: Ach fraget die gequalte Seele
9. Recitativo: Entdecke dann der Seele /Aria: Ihr schönsten Augen
10. Recitativo: Es mehrt sich immer /Aria: Die sternen lodern
11. Chor und Recitativo: Der König leb’/ Aria: Ihr krachenden Grüfte
12. Recitativo: Untreue, sprich /Aria a due: Senti, mio caro, senti
13. Aria: Care luci /Recitativo: Don Pedro… /Aria: Die Tugend, Vernunft und die Liebe
14. Akt II. Recitativo: Ein Herz, das furchtsam leibt /Aria: Sich ein wenig zornig stellen
15. Recitativo: Heraus, wo steckt der Schelm /Aria: Es ist gewiß
16. Recitativo: Verwegner, stirb! /Aria: Wenn die Geduld zu hart verletzet
17. Recitativo: Anotnio is von Perron gebunden/ Aria: Mein Magnet ist mir entzogen
18. Recitativo: Läßt du sie ohne Trost? /Aria a Due: Meine Seele
19. Recitativo: Ach schwaches Herz/Aria: In den Strahlen jener Sonne
CD2
1. Ritornello/Recitativo: Bewaffne euch, ih Brüder/ Aria: ihr Blitze der blinkenden
2. Recitativo: Wo ist mein Liebstes / Aria: Ti perdei
3. Aria: Liebste Zeilen, schönes Pfand /Recitativo: Was liest mein Schatz?
4. Recitativo: Erlaube mir, mein Herr /Accompagnement: Verhängnis sonder Rechtl /Aria
5. Recitativo: Dies geh ich nimmer ein /Aria a Due: Addio caro sposo
6. Akt III. Ritornello/Recitativo: Dieweil Antonio gefanger /Aria: Es ist also
7. Arie: Die Wolken zeugen Keil und Blitze
8. Recitativo: Dies Schreiber locket mich /Aria: Sei nur zufrieden meine Seele
9. Accompagnement: Wie zögerst du so lange /Aria: Ja, endlich wird mein
10. Recitativo: Du bist nun wieder frei /Aria: Di sposa costante
11. Recitativo: Willkommen, werter Fruend /Chor: Seid frohlich
12. Recitativo: Das Glück will mir sie recht /Aria: Bella cruda
13. Recitativo: Ich kann die seltsame Begebenheit /Trio: Le sommeil
14. Recitativo: Ich will mich zu des Herzogs Füßen legen
15. Recitativo: Ach, ihrer Treu und Tugend Alabaster /Aria: Torna alle querele
16. Recitativo: Stirb, Unglückseliger! /Aria a Due: Fellone spietato
17. Accompagnement: Verzagte Räuber! /Aria: Ich eile nicht mehr zu Schiffe
18. Recitativo: Nun reichet euch die Hände /Chor: Frohlocket und labet mit spielender Lust

Лог создания рипа

Отчёт EAC CD1

Exact Audio Copy V1.0 beta 1 from 15. November 2010
EAC extraction logfile from 5. December 2011, 14:20
Thomas Albert, D.Cordier, H. van der Kamp, B.Schlick, D.Roschmann / Keiser - Masaniello furioso CD1
Used drive : PIONEER DVD-RW DVR-218L Adapter: 1 ID: 0
Read mode : Secure
Utilize accurate stream : Yes
Defeat audio cache : Yes
Make use of C2 pointers : No
Read offset correction : 6
Overread into Lead-In and Lead-Out : No
Fill up missing offset samples with silence : Yes
Delete leading and trailing silent blocks : No
Null samples used in CRC calculations : Yes
Used interface : Native Win32 interface for Win NT & 2000
Used output format : User Defined Encoder
Selected bitrate : 192 kBit/s
Quality : High
Add ID3 tag : No
Command line compressor : C:\Program Files\Exact Audio Copy\Flac\flac.exe
Additional command line options : -T "DATE=%y" -T "GENRE=%m" -8 -V %s
TOC of the extracted CD
Track | Start | Length | Start sector | End sector
---------------------------------------------------------
1 | 0:00.48 | 3:36.52 | 48 | 16299
2 | 3:37.25 | 6:07.45 | 16300 | 43869
3 | 9:44.70 | 2:22.33 | 43870 | 54552
4 | 12:07.28 | 3:20.67 | 54553 | 69619
5 | 15:28.20 | 4:25.58 | 69620 | 89552
6 | 19:54.03 | 5:26.45 | 89553 | 114047
7 | 25:20.48 | 7:28.32 | 114048 | 147679
8 | 32:49.05 | 4:22.68 | 147680 | 167397
9 | 37:11.73 | 2:31.42 | 167398 | 178764
10 | 39:43.40 | 2:56.50 | 178765 | 192014
11 | 42:40.15 | 3:18.10 | 192015 | 206874
12 | 45:58.25 | 4:28.63 | 206875 | 227037
13 | 50:27.13 | 9:30.62 | 227038 | 269849
14 | 59:58.00 | 2:05.15 | 269850 | 279239
15 | 62:03.15 | 4:18.40 | 279240 | 298629
16 | 66:21.55 | 1:50.73 | 298630 | 306952
17 | 68:12.53 | 2:34.32 | 306953 | 318534
18 | 70:47.10 | 3:03.38 | 318535 | 332297
19 | 73:50.48 | 2:19.45 | 332298 | 342767
Range status and errors
Selected range
Filename C:\Keiser - Masaniello furioso CD1.wav
Peak level 71.5 %
Extraction speed 0.0 X
Range quality 100.0 %
Test CRC FDF3C51C
Copy CRC FDF3C51C
Copy OK
No errors occurred
AccurateRip summary
Track 1 cannot be verified as accurate (confidence 1) [208EE585], AccurateRip returned [3B2E3AA0]
Track 2 cannot be verified as accurate (confidence 1) [2E7FD1D4], AccurateRip returned [F9D17B7F]
Track 3 cannot be verified as accurate (confidence 1) [8A356838], AccurateRip returned [6F7AAA8F]
Track 4 cannot be verified as accurate (confidence 1) [497D6191], AccurateRip returned [B34B40F2]
Track 5 cannot be verified as accurate (confidence 1) [35EA1288], AccurateRip returned [EB4CCFDC]
Track 6 cannot be verified as accurate (confidence 1) [167E2300], AccurateRip returned [CB7F7499]
Track 7 cannot be verified as accurate (confidence 1) [CECE76B1], AccurateRip returned [158B7DFE]
Track 8 cannot be verified as accurate (confidence 1) [EA46CCB0], AccurateRip returned [C1EF57BF]
Track 9 cannot be verified as accurate (confidence 1) [A5A82A87], AccurateRip returned [1A634D37]
Track 10 cannot be verified as accurate (confidence 1) [526A8A6B], AccurateRip returned [4B6A8ECD]
Track 11 cannot be verified as accurate (confidence 1) [06DEFE0B], AccurateRip returned [BF102941]
Track 12 cannot be verified as accurate (confidence 1) [1846267B], AccurateRip returned [1E090544]
Track 13 cannot be verified as accurate (confidence 1) [240C5730], AccurateRip returned [74D4F7A4]
Track 14 cannot be verified as accurate (confidence 1) [CBACE880], AccurateRip returned [DEB9B81C]
Track 15 cannot be verified as accurate (confidence 1) [481E6775], AccurateRip returned [FCEA497D]
Track 16 cannot be verified as accurate (confidence 1) [4A870399], AccurateRip returned [85C811A2]
Track 17 cannot be verified as accurate (confidence 1) [7D10DD30], AccurateRip returned [5D502353]
Track 18 cannot be verified as accurate (confidence 1) [304A2CB0], AccurateRip returned [B152BB46]
Track 19 cannot be verified as accurate (confidence 1) [18F6C95E], AccurateRip returned [A77ACFC2]
No tracks could be verified as accurate
You may have a different pressing from the one(s) in the database
End of status report
==== Log checksum 9449FC2096224B07699DC9995BFFB6BF503905D9049634226BC5D195CE6564FB ====

Отчёт EAC CD2

Exact Audio Copy V1.0 beta 1 from 15. November 2010
EAC extraction logfile from 5. December 2011, 16:46
Thomas Albert, D.Cordier, H. van der Kamp, B.Schlick, D.Roschmann / Keiser - Masaniello furioso CD2
Used drive : PIONEER DVD-RW DVR-218L Adapter: 1 ID: 0
Read mode : Secure
Utilize accurate stream : Yes
Defeat audio cache : Yes
Make use of C2 pointers : No
Read offset correction : 6
Overread into Lead-In and Lead-Out : No
Fill up missing offset samples with silence : Yes
Delete leading and trailing silent blocks : No
Null samples used in CRC calculations : Yes
Used interface : Native Win32 interface for Win NT & 2000
Used output format : User Defined Encoder
Selected bitrate : 192 kBit/s
Quality : High
Add ID3 tag : No
Command line compressor : C:\Program Files\Exact Audio Copy\Flac\flac.exe
Additional command line options : -T "DATE=%y" -T "GENRE=%m" -8 -V %s
TOC of the extracted CD
Track | Start | Length | Start sector | End sector
---------------------------------------------------------
1 | 0:00.32 | 2:06.63 | 32 | 9544
2 | 2:07.20 | 4:01.12 | 9545 | 27631
3 | 6:08.32 | 3:59.28 | 27632 | 45584
4 | 10:07.60 | 7:19.27 | 45585 | 78536
5 | 17:27.12 | 4:16.35 | 78537 | 97771
6 | 21:43.47 | 1:50.50 | 97772 | 106071
7 | 23:34.22 | 1:54.43 | 106072 | 114664
8 | 25:28.65 | 3:30.47 | 114665 | 130461
9 | 28:59.37 | 4:25.23 | 130462 | 150359
10 | 33:24.60 | 4:31.70 | 150360 | 170754
11 | 37:56.55 | 3:46.02 | 170755 | 187706
12 | 41:42.57 | 6:18.25 | 187707 | 216081
13 | 48:01.07 | 7:01.68 | 216082 | 247724
14 | 55:03.00 | 1:33.67 | 247725 | 254766
15 | 56:36.67 | 3:39.73 | 254767 | 271264
16 | 60:16.65 | 3:56.35 | 271265 | 288999
17 | 64:13.25 | 2:53.17 | 289000 | 301991
18 | 67:06.42 | 3:38.25 | 301992 | 318366
Range status and errors
Selected range
Filename C:\Keiser - Masaniello furioso CD2.wav
Peak level 98.8 %
Extraction speed 0.0 X
Range quality 100.0 %
Test CRC 05AF11C6
Copy CRC 05AF11C6
Copy OK
No errors occurred
AccurateRip summary
Track 1 cannot be verified as accurate (confidence 3) [EB3DE441], AccurateRip returned [DE3E75F1]
Track 2 cannot be verified as accurate (confidence 3) [F3E512EE], AccurateRip returned [6E126025]
Track 3 cannot be verified as accurate (confidence 3) [7B4203AE], AccurateRip returned [B2822D88]
Track 4 cannot be verified as accurate (confidence 3) [55AC1A94], AccurateRip returned [28F01BFD]
Track 5 cannot be verified as accurate (confidence 3) [B4BC6A15], AccurateRip returned [D73CCDC3]
Track 6 cannot be verified as accurate (confidence 3) [ABDB44F4], AccurateRip returned [0439C081]
Track 7 cannot be verified as accurate (confidence 3) [30EC5811], AccurateRip returned [DB7EEA6C]
Track 8 cannot be verified as accurate (confidence 3) [F5FEAF39], AccurateRip returned [C9E11599]
Track 9 cannot be verified as accurate (confidence 3) [AE82A42B], AccurateRip returned [7FDCB92B]
Track 10 cannot be verified as accurate (confidence 3) [7B1B7157], AccurateRip returned [AAD2CB4E]
Track 11 cannot be verified as accurate (confidence 3) [89E94AB3], AccurateRip returned [6C99D7E6]
Track 12 cannot be verified as accurate (confidence 3) [E4BC0981], AccurateRip returned [121CA818]
Track 13 cannot be verified as accurate (confidence 3) [5A8AE57E], AccurateRip returned [3383B1D7]
Track 14 cannot be verified as accurate (confidence 3) [B795FC0F], AccurateRip returned [4567194E]
Track 15 cannot be verified as accurate (confidence 3) [7975B43A], AccurateRip returned [96169FC2]
Track 16 cannot be verified as accurate (confidence 3) [A8722A55], AccurateRip returned [51EBDAF2]
Track 17 cannot be verified as accurate (confidence 3) [20982196], AccurateRip returned [C18C3026]
Track 18 cannot be verified as accurate (confidence 3) [8C057ED9], AccurateRip returned [995E24B9]
No tracks could be verified as accurate
You may have a different pressing from the one(s) in the database
End of status report
==== Log checksum F60454484BCE2E45F994C3B84CFD487BA801AC5CB0609AB11CC0C16589E4643C ====

_________________
Other forum [Profile] [PM]
Display posts from previous:    
Reply to topic

The time now is: Today 17:43

All times are GMT + 3 Hours



You cannot post new topics in this forum
You cannot reply to topics in this forum
You cannot edit your posts in this forum
You cannot delete your posts in this forum
You cannot vote in polls in this forum
You cannot attach files in this forum
You cannot download files in this forum