Today is a free download without charge Download

(Opera) Cherubini: Medea - Callas, Vickers, Carron, Zaccaria, Berganza - Rescigno - Dallas, 8.11.1958 (2008), APE (image+.cue) lossless

Reply to topic
 
Author
Message

Koralina ®

Longevity: 7 years 11 months

Posts: 994

Location: Lithuania

Торрент-статистика

Post 10-Dec-2011 15:15

[Quote]

Cherubini: Medea - Callas, Vickers, Carron, Zaccaria, Berganza - Rescigno - Dallas, 8.11.1958 (2008), APE (image+.cue) lossless
Жанр: Opera
Страна-производитель диска: EU
Год издания диска: 2008
Издатель (лейбл): MYTO
Дата записи: 1958
Аудиокодек: APE
Тип рипа: image+.cue
Битрейт аудио: lossless
Продолжительность: 55.58 + 74.00
Источник: собственный рип rialex

Треклист - CD1

01 Sinfonia
02 Atto I - Che? Quando già corona Amor
03 Atto I - Ahimè! gioir vorrei
04 Atto I - O Amore, vieni a me!
05 Atto I - No, non temer
06 Atto I - O bella Glauce
07 Atto I - Or che più non vedrò
08 Atto I - Ah, già troppo turbò
09 Atto I - Pronube Dive, Dei custodi
10 Atto I - Signor! Ferma una donna
11 Atto I - E´ forse qui che il vil sicuro sta?
12 Atto I - Qui tremar devi tu
13 Atto I - Taci, Giason, e affisi immoto
14 Atto I - Dei tuoi figli la madre
15 Atto I - Son vane qui minacce
16 Atto I - Nemici senza cor

Треклист - CD2

01 Atto II - Introduzione
02 Atto II - Soffrir non posso
03 Atto II - Date almen per pietà
04 Atto II - Re degli Dei!
05 Atto II - Ebben! Tutto mi manca!
06 Atto II - So che da mia bontà
07 Atto II - Medea! O Medea!
08 Atto II - Solo un pianto con te versare
09 Atto II - Creonte a me solo un giorno da?
10 Atto II - Figli miei, miei tesor
11 Atto II - Verrà presto all'altar
12 Atto II - Hai dato pronto ascolto
13 Atto II - Ah, triste canto!
14 Atto II - Ascolta il mio pregare!
15 Atto III - Introduzione
16 Atto III - Numi, venite a me, inferni Dei!
17 Atto III - Compiuto fu, Medea, il tuo voler
18 Atto III - Del fiero duol che il cor mi frange
19 Atto III - Neris, che hai fatto tu del dono mio?
20 Atto III - E che? Io son Medea! Io sono madre
21 Atto III - Oh Dei, pietà di noi!
22 Atto III - Trista Glauce fedel!
23 Atto III - Tu Glauce piangi sol
24 Atto III - T'arresta!

Лог создания рипа - CD1

Exact Audio Copy V1.0 beta 2 from 29. April 2011
EAC extraction logfile from 8. December 2011, 0:09
Callas, Vickers, Carron, Zaccaria, Berganza - Nicola Rescigno - Chorus and Orchestra of Dallas Civic Opera / Cherubini: Medea (Dallas, 8.11.1958) - CD1
Used drive : Optiarc DVD+-RW AD-7580S Adapter: 1 ID: 0
Read mode : Secure
Utilize accurate stream : Yes
Defeat audio cache : Yes
Make use of C2 pointers : No
Read offset correction : 6
Overread into Lead-In and Lead-Out : No
Fill up missing offset samples with silence : Yes
Delete leading and trailing silent blocks : No
Null samples used in CRC calculations : Yes
Used interface : Native Win32 interface for Win NT & 2000
Used output format : Monkey's Audio Lossless Encoder
Selected bitrate : Extra High Lossless Compression
Quality : High
Add ID3 tag : No
Command line compressor : C:\Program Files\Monkey's Audio\MAC.exe
Additional command line options : %source% %dest% -c3000
TOC of the extracted CD
Track | Start | Length | Start sector | End sector
---------------------------------------------------------
1 | 0:00.00 | 7:11.17 | 0 | 32341
2 | 7:11.17 | 3:18.38 | 32342 | 47229
3 | 10:29.55 | 3:54.46 | 47230 | 64825
4 | 14:24.26 | 4:48.70 | 64826 | 86495
5 | 19:13.21 | 2:08.66 | 86496 | 96161
6 | 21:22.12 | 4:25.69 | 96162 | 116105
7 | 25:48.06 | 3:03.31 | 116106 | 129861
8 | 28:51.37 | 0:43.72 | 129862 | 133158
9 | 29:35.34 | 6:19.41 | 133159 | 161624
10 | 35:55.00 | 0:36.58 | 161625 | 164382
11 | 36:31.58 | 3:47.72 | 164383 | 181479
12 | 40:19.55 | 2:07.45 | 181480 | 191049
13 | 42:27.25 | 2:39.30 | 191050 | 203004
14 | 45:06.55 | 5:04.08 | 203005 | 225812
15 | 50:10.63 | 0:37.10 | 225813 | 228597
16 | 50:47.73 | 5:10.46 | 228598 | 251893
Range status and errors
Selected range
Filename C:\Users\Alex\Desktop\Cherubini - MEDEA - Callas, Vickers, Carron, Zaccaria, Berganza - Rescigno (Dallas, 8.11.1958)\CD1.wav
Peak level 100.0 %
Extraction speed 1.8 X
Range quality 100.0 %
Test CRC 721BDD33
Copy CRC 721BDD33
Copy OK
No errors occurred
End of status report

Лог создания рипа - CD2

Exact Audio Copy V1.0 beta 2 from 29. April 2011
EAC extraction logfile from 8. December 2011, 1:37
Callas, Vickers, Carron, Zaccaria, Berganza - Nicola Rescigno - Chorus and Orchestra of Dallas Civic Opera / Cherubini: Medea (Dallas, 8.11.1958) - CD2
Used drive : Optiarc DVD+-RW AD-7580S Adapter: 1 ID: 0
Read mode : Secure
Utilize accurate stream : Yes
Defeat audio cache : Yes
Make use of C2 pointers : No
Read offset correction : 6
Overread into Lead-In and Lead-Out : No
Fill up missing offset samples with silence : Yes
Delete leading and trailing silent blocks : No
Null samples used in CRC calculations : Yes
Used interface : Native Win32 interface for Win NT & 2000
Used output format : Monkey's Audio Lossless Encoder
Selected bitrate : Extra High Lossless Compression
Quality : High
Add ID3 tag : No
Command line compressor : C:\Program Files\Monkey's Audio\MAC.exe
Additional command line options : %source% %dest% -c3000
TOC of the extracted CD
Track | Start | Length | Start sector | End sector
---------------------------------------------------------
1 | 0:00.00 | 1:50.54 | 0 | 8303
2 | 1:50.54 | 2:46.66 | 8304 | 20819
3 | 4:37.45 | 2:52.29 | 20820 | 33748
4 | 7:29.74 | 1:37.67 | 33749 | 41090
5 | 9:07.66 | 2:45.14 | 41091 | 53479
6 | 11:53.05 | 3:37.47 | 53480 | 69801
7 | 15:30.52 | 1:27.30 | 69802 | 76356
8 | 16:58.07 | 7:16.40 | 76357 | 109096
9 | 24:14.47 | 2:37.58 | 109097 | 120929
10 | 26:52.30 | 3:51.63 | 120930 | 138317
11 | 30:44.18 | 2:22.71 | 138318 | 149038
12 | 33:07.14 | 1:21.20 | 149039 | 155133
13 | 34:28.34 | 5:04.63 | 155134 | 177996
14 | 39:33.22 | 5:35.09 | 177997 | 203130
15 | 45:08.31 | 3:49.64 | 203131 | 220369
16 | 48:58.20 | 2:17.03 | 220370 | 230647
17 | 51:15.23 | 3:03.31 | 230648 | 244403
18 | 54:18.54 | 4:25.72 | 244404 | 264350
19 | 58:44.51 | 1:35.29 | 264351 | 271504
20 | 60:20.05 | 4:53.54 | 271505 | 293533
21 | 65:13.59 | 1:04.40 | 293534 | 298373
22 | 66:18.24 | 1:17.62 | 298374 | 304210
23 | 67:36.11 | 3:05.13 | 304211 | 318098
24 | 70:41.24 | 3:19.44 | 318099 | 333067
Range status and errors
Selected range
Filename C:\Users\Alex\Desktop\Cherubini - MEDEA - Callas, Vickers, Carron, Zaccaria, Berganza - Rescigno (Dallas, 8.11.1958)\CD2.wav
Peak level 100.0 %
Extraction speed 2.0 X
Range quality 99.9 %
Test CRC 4093F448
Copy CRC 4093F448
Copy OK
No errors occurred
End of status report

Содержание индексной карты (.CUE) - CD1

REM GENRE Opera
REM DATE 1958
REM DISCID D60D1E10
REM COMMENT "ExactAudioCopy v1.0b2"
PERFORMER "Callas, Vickers, Carron, Zaccaria, Berganza - Nicola Rescigno - Chorus and Orchestra of Dallas Civic Opera"
TITLE "Cherubini: Medea (Dallas, 8.11.1958) - CD1"
FILE "CD1.ape" WAVE
TRACK 01 AUDIO
TITLE "01 Sinfonia"
PERFORMER "Callas, Vickers, Carron, Zaccaria, Berganza - Nicola Rescigno - Chorus and Orchestra of Dallas Civic Opera"
INDEX 01 00:00:00
TRACK 02 AUDIO
TITLE "02 Atto I - Che? Quando già corona Amor"
PERFORMER "Callas, Vickers, Carron, Zaccaria, Berganza - Nicola Rescigno - Chorus and Orchestra of Dallas Civic Opera"
INDEX 01 07:11:17
TRACK 03 AUDIO
TITLE "03 Atto I - Ahimè! gioir vorrei"
PERFORMER "Callas, Vickers, Carron, Zaccaria, Berganza - Nicola Rescigno - Chorus and Orchestra of Dallas Civic Opera"
INDEX 01 10:29:55
TRACK 04 AUDIO
TITLE "04 Atto I - O Amore, vieni a me!"
PERFORMER "Callas, Vickers, Carron, Zaccaria, Berganza - Nicola Rescigno - Chorus and Orchestra of Dallas Civic Opera"
INDEX 01 14:24:26
TRACK 05 AUDIO
TITLE "05 Atto I - No, non temer"
PERFORMER "Callas, Vickers, Carron, Zaccaria, Berganza - Nicola Rescigno - Chorus and Orchestra of Dallas Civic Opera"
INDEX 01 19:13:21
TRACK 06 AUDIO
TITLE "06 Atto I - O bella Glauce"
PERFORMER "Callas, Vickers, Carron, Zaccaria, Berganza - Nicola Rescigno - Chorus and Orchestra of Dallas Civic Opera"
INDEX 01 21:22:12
TRACK 07 AUDIO
TITLE "07 Atto I - Or che più non vedrò"
PERFORMER "Callas, Vickers, Carron, Zaccaria, Berganza - Nicola Rescigno - Chorus and Orchestra of Dallas Civic Opera"
INDEX 01 25:48:06
TRACK 08 AUDIO
TITLE "08 Atto I - Ah, già troppo turbò"
PERFORMER "Callas, Vickers, Carron, Zaccaria, Berganza - Nicola Rescigno - Chorus and Orchestra of Dallas Civic Opera"
INDEX 01 28:51:37
TRACK 09 AUDIO
TITLE "09 Atto I - Pronube Dive, Dei custodi"
PERFORMER "Callas, Vickers, Carron, Zaccaria, Berganza - Nicola Rescigno - Chorus and Orchestra of Dallas Civic Opera"
INDEX 01 29:35:34
TRACK 10 AUDIO
TITLE "10 Atto I - Signor! Ferma una donna"
PERFORMER "Callas, Vickers, Carron, Zaccaria, Berganza - Nicola Rescigno - Chorus and Orchestra of Dallas Civic Opera"
INDEX 01 35:55:00
TRACK 11 AUDIO
TITLE "11 Atto I - E´ forse qui che il vil sicuro sta?"
PERFORMER "Callas, Vickers, Carron, Zaccaria, Berganza - Nicola Rescigno - Chorus and Orchestra of Dallas Civic Opera"
INDEX 01 36:31:58
TRACK 12 AUDIO
TITLE "12 Atto I - Qui tremar devi tu"
PERFORMER "Callas, Vickers, Carron, Zaccaria, Berganza - Nicola Rescigno - Chorus and Orchestra of Dallas Civic Opera"
INDEX 01 40:19:55
TRACK 13 AUDIO
TITLE "13 Atto I - Taci, Giason, e affisi immoto"
PERFORMER "Callas, Vickers, Carron, Zaccaria, Berganza - Nicola Rescigno - Chorus and Orchestra of Dallas Civic Opera"
INDEX 01 42:27:25
TRACK 14 AUDIO
TITLE "14 Atto I - Dei tuoi figli la madre"
PERFORMER "Callas, Vickers, Carron, Zaccaria, Berganza - Nicola Rescigno - Chorus and Orchestra of Dallas Civic Opera"
INDEX 01 45:06:55
TRACK 15 AUDIO
TITLE "15 Atto I - Son vane qui minacce"
PERFORMER "Callas, Vickers, Carron, Zaccaria, Berganza - Nicola Rescigno - Chorus and Orchestra of Dallas Civic Opera"
INDEX 01 50:10:63
TRACK 16 AUDIO
TITLE "16 Atto I - Nemici senza cor"
PERFORMER "Callas, Vickers, Carron, Zaccaria, Berganza - Nicola Rescigno - Chorus and Orchestra of Dallas Civic Opera"
INDEX 01 50:47:73

Содержание индексной карты (.CUE) - CD2

REM GENRE Opera
REM DATE 1958
REM DISCID 4D115818
REM COMMENT "ExactAudioCopy v1.0b2"
PERFORMER "Callas, Vickers, Carron, Zaccaria, Berganza - Nicola Rescigno - Chorus and Orchestra of Dallas Civic Opera"
TITLE "Cherubini: Medea (Dallas, 8.11.1958) - CD2"
FILE "CD2.ape" WAVE
TRACK 01 AUDIO
TITLE "01 Atto II - Introduzione"
PERFORMER "Callas, Vickers, Carron, Zaccaria, Berganza - Nicola Rescigno - Chorus and Orchestra of Dallas Civic Opera"
INDEX 01 00:00:00
TRACK 02 AUDIO
TITLE "02 Atto II - Soffrir non posso"
PERFORMER "Callas, Vickers, Carron, Zaccaria, Berganza - Nicola Rescigno - Chorus and Orchestra of Dallas Civic Opera"
INDEX 01 01:50:54
TRACK 03 AUDIO
TITLE "03 Atto II - Date almen per pietà"
PERFORMER "Callas, Vickers, Carron, Zaccaria, Berganza - Nicola Rescigno - Chorus and Orchestra of Dallas Civic Opera"
INDEX 01 04:37:45
TRACK 04 AUDIO
TITLE "04 Atto II - Re degli Dei!"
PERFORMER "Callas, Vickers, Carron, Zaccaria, Berganza - Nicola Rescigno - Chorus and Orchestra of Dallas Civic Opera"
INDEX 01 07:29:74
TRACK 05 AUDIO
TITLE "05 Atto II - Ebben! Tutto mi manca!"
PERFORMER "Callas, Vickers, Carron, Zaccaria, Berganza - Nicola Rescigno - Chorus and Orchestra of Dallas Civic Opera"
INDEX 01 09:07:66
TRACK 06 AUDIO
TITLE "06 Atto II - So che da mia bontà"
PERFORMER "Callas, Vickers, Carron, Zaccaria, Berganza - Nicola Rescigno - Chorus and Orchestra of Dallas Civic Opera"
INDEX 01 11:53:05
TRACK 07 AUDIO
TITLE "07 Atto II - Medea! O Medea!"
PERFORMER "Callas, Vickers, Carron, Zaccaria, Berganza - Nicola Rescigno - Chorus and Orchestra of Dallas Civic Opera"
INDEX 01 15:30:52
TRACK 08 AUDIO
TITLE "08 Atto II - Solo un pianto con te versare"
PERFORMER "Callas, Vickers, Carron, Zaccaria, Berganza - Nicola Rescigno - Chorus and Orchestra of Dallas Civic Opera"
INDEX 01 16:58:07
TRACK 09 AUDIO
TITLE "09 Atto II - Creonte a me solo un giorno da?"
PERFORMER "Callas, Vickers, Carron, Zaccaria, Berganza - Nicola Rescigno - Chorus and Orchestra of Dallas Civic Opera"
INDEX 01 24:14:47
TRACK 10 AUDIO
TITLE "10 Atto II - Figli miei, miei tesor"
PERFORMER "Callas, Vickers, Carron, Zaccaria, Berganza - Nicola Rescigno - Chorus and Orchestra of Dallas Civic Opera"
INDEX 01 26:52:30
TRACK 11 AUDIO
TITLE "11 Atto II - Verrà presto all'altar"
PERFORMER "Callas, Vickers, Carron, Zaccaria, Berganza - Nicola Rescigno - Chorus and Orchestra of Dallas Civic Opera"
INDEX 01 30:44:18
TRACK 12 AUDIO
TITLE "12 Atto II - Hai dato pronto ascolto"
PERFORMER "Callas, Vickers, Carron, Zaccaria, Berganza - Nicola Rescigno - Chorus and Orchestra of Dallas Civic Opera"
INDEX 01 33:07:14
TRACK 13 AUDIO
TITLE "13 Atto II - Ah, triste canto!"
PERFORMER "Callas, Vickers, Carron, Zaccaria, Berganza - Nicola Rescigno - Chorus and Orchestra of Dallas Civic Opera"
INDEX 01 34:28:34
TRACK 14 AUDIO
TITLE "14 Atto II - Ascolta il mio pregare!"
PERFORMER "Callas, Vickers, Carron, Zaccaria, Berganza - Nicola Rescigno - Chorus and Orchestra of Dallas Civic Opera"
INDEX 01 39:33:22
TRACK 15 AUDIO
TITLE "15 Atto III - Introduzione"
PERFORMER "Callas, Vickers, Carron, Zaccaria, Berganza - Nicola Rescigno - Chorus and Orchestra of Dallas Civic Opera"
INDEX 01 45:08:31
TRACK 16 AUDIO
TITLE "16 Atto III - Numi, venite a me, inferni Dei!"
PERFORMER "Callas, Vickers, Carron, Zaccaria, Berganza - Nicola Rescigno - Chorus and Orchestra of Dallas Civic Opera"
INDEX 01 48:58:20
TRACK 17 AUDIO
TITLE "17 Atto III - Compiuto fu, Medea, il tuo voler"
PERFORMER "Callas, Vickers, Carron, Zaccaria, Berganza - Nicola Rescigno - Chorus and Orchestra of Dallas Civic Opera"
INDEX 01 51:15:23
TRACK 18 AUDIO
TITLE "18 Atto III - Del fiero duol che il cor mi frange"
PERFORMER "Callas, Vickers, Carron, Zaccaria, Berganza - Nicola Rescigno - Chorus and Orchestra of Dallas Civic Opera"
INDEX 01 54:18:54
TRACK 19 AUDIO
TITLE "19 Atto III - Neris, che hai fatto tu del dono mio?"
PERFORMER "Callas, Vickers, Carron, Zaccaria, Berganza - Nicola Rescigno - Chorus and Orchestra of Dallas Civic Opera"
INDEX 01 58:44:51
TRACK 20 AUDIO
TITLE "20 Atto III - E che? Io son Medea! Io sono madre"
PERFORMER "Callas, Vickers, Carron, Zaccaria, Berganza - Nicola Rescigno - Chorus and Orchestra of Dallas Civic Opera"
INDEX 01 60:20:05
TRACK 21 AUDIO
TITLE "21 Atto III - Oh Dei, pietà di noi!"
PERFORMER "Callas, Vickers, Carron, Zaccaria, Berganza - Nicola Rescigno - Chorus and Orchestra of Dallas Civic Opera"
INDEX 01 65:13:59
TRACK 22 AUDIO
TITLE "22 Atto III - Trista Glauce fedel!"
PERFORMER "Callas, Vickers, Carron, Zaccaria, Berganza - Nicola Rescigno - Chorus and Orchestra of Dallas Civic Opera"
INDEX 01 66:18:24
TRACK 23 AUDIO
TITLE "23 Atto III - Tu Glauce piangi sol"
PERFORMER "Callas, Vickers, Carron, Zaccaria, Berganza - Nicola Rescigno - Chorus and Orchestra of Dallas Civic Opera"
INDEX 01 67:36:11
TRACK 24 AUDIO
TITLE "24 Atto III - T'arresta!"
PERFORMER "Callas, Vickers, Carron, Zaccaria, Berganza - Nicola Rescigno - Chorus and Orchestra of Dallas Civic Opera"
INDEX 01 70:41:24

_________________
Other forum [Profile] [PM]
Display posts from previous:    
Reply to topic

The time now is: Today 18:01

All times are GMT + 3 Hours



You cannot post new topics in this forum
You cannot reply to topics in this forum
You cannot edit your posts in this forum
You cannot delete your posts in this forum
You cannot vote in polls in this forum
You cannot attach files in this forum
You cannot download files in this forum