Today is a free download without charge Download

(Pop) Mylene Farmer — Discography (24 Releases / Albums) — 1986–2010, APE (image+.cue), lossless

Reply to topic
 
Author
Message

Koralina ®

Longevity: 7 years 11 months

Posts: 994

Location: Lithuania

Торрент-статистика

Post 07-Dec-2011 10:20

[Quote]

Диско-, концерто-, ремиксография + официальная компиляция
Жанр: Pop
Год выпуска диска: 1986-2010
Производитель диска: Various
Аудио кодек: APE
Тип рипа: image+.cue
Битрейт аудио: lossless

Дополнительная информация: Все диски — из моей личной коллекции.
Рипованы лично мной на одном и том же оборудовании.
Сканы — полные, т.е. диски, ковры и целиком буклеты в *.jpeg, 300 dpi
Первые 4 студийных альбома (Cendres De Lune, Ainsi Soit Je, L'autre, Anamorphosee)
являются первыми оригинальными релизами на CD, в отличие от данной раздачи,
в которой находятся переиздания, выходившие в упаковке digipak.
Хотя Ainsi..., по правде говоря, является всё же второпрессом. Самый-пресамый первый произведён во Франции, был НЕ пикча. Но, т.к. диск выпущен немцами в тот же год, что и "оригинал", то... имеем то, что имеем.
Cendres De Lune в данной раздаче, строго говоря, - тоже не самый первый релиз, т.к. тот выходил только в Германии и не содержал трек Tristana, а также ремиксы. Является огромной редкостью и стОит бешеных денег Впоследствии был перевыпущен с добавленными треками в том виде, в котором все его и знают.

1986 - Cendres De Lune

Год выпуска: 1986
Производитель и номер диска: France, Polydor
Продолжительность: 53:07
AccurateRip: 100%
Треклист:
01. Libertine (03:48)
02. Au Bout De La Nuit (04:22)
03. Vieux Bouc (05:37)
04. Tristana (04:36)
05. Chloe (02:35)
06. Maman A Tort (Nouvelle Version) (04:05)
07. We'll Never Die (04:17)
08. Greta (04:49)
09. Plus Grandir (04:05)
10. Libertine (Remix Special Club) (05:53)
11. Tristana (Remix Club) (07:10)
12. Cendres De Lune (01:48)

EAC + AccurateRip LOG

Exact Audio Copy V0.99 prebeta 4 from 23. January 2008
Отчёт EAC об извлечении, выполненном 31. августа 2008, 22:19
Mylene Farmer / Cendres de lune
Дисковод: MAD DOG MD-16XDVD9A2 Adapter: 3 ID: 0
Режим чтения : ДостоверностьИспользование точного потока : ДаОтключение кэша аудио : ДаИспользование указателей C2 : Нет
Коррекция смещения при чтении : 48Способность читать области Lead-in и Lead-out : НетЗаполнение пропущенных сэмплов тишиной : ДаУдаление блоков с тишиной в начале и конце : НетПри вычислениях CRC использовались нулевые сэмплы : ДаИнтерфейс : Установленный внешний ASPI-интерфейс
Выходной формат : Внутренние WAV-операцииФормат сэмплов : 44.100 Гц; 16 бит; стерео
TOC извлечённого CD
Трек | Старт | Длительность | Начальный сектор | Конечный сектор --------------------------------------------------------------------- 1 | 0:00.33 | 3:48.20 | 33 | 17152 2 | 3:48.53 | 4:22.32 | 17153 | 36834 3 | 8:11.10 | 5:37.13 | 36835 | 62122 4 | 13:48.23 | 4:35.50 | 62123 | 82797 5 | 18:23.73 | 2:35.27 | 82798 | 94449 6 | 20:59.25 | 4:05.25 | 94450 | 112849 7 | 25:04.50 | 4:17.33 | 112850 | 132157 8 | 29:22.08 | 4:49.15 | 132158 | 153847 9 | 34:11.23 | 4:04.62 | 153848 | 172209 10 | 38:16.10 | 5:53.28 | 172210 | 198712 11 | 44:09.38 | 7:10.00 | 198713 | 230962 12 | 51:19.38 | 1:47.72 | 230963 | 239059
Характеристики диапазона извлечения и сообщения об ошибках
Выбранный диапазон
Имя файла K:\LOSSLESS\Mylene Farmer\Mylene Farmer - Cendres de lune\Mylene Farmer - Cendres de lune.wav
Пиковый уровень 100.0 % Качество диапазона 99.9 % CRC теста 142F791F CRC копии 142F791F Копирование... OK
Ошибок не произошло
AccurateRip: сводка
Трек 1 точное извлечение (доверие 2) [CF6FA17B]Трек 2 точное извлечение (доверие 2) [50848949]Трек 3 точное извлечение (доверие 2) [95206FEB]Трек 4 точное извлечение (доверие 2) [CF045DAF]Трек 5 точное извлечение (доверие 2) [21A3AF79]Трек 6 точное извлечение (доверие 2) [722565C9]Трек 7 точное извлечение (доверие 2) [3A90C0A4]Трек 8 точное извлечение (доверие 2) [23E720BB]Трек 9 точное извлечение (доверие 2) [87EB53C4]Трек 10 точное извлечение (доверие 2) [1C2B7AAA]Трек 11 точное извлечение (доверие 2) [8B5B163B]Трек 12 точное извлечение (доверие 2) [1F1CEFFC]
Все треки извлечены точно
Конец отчёта

1988 - Ainsi soit je...

Год выпуска: 1988
Производитель: Germany, Polydor
Продолжительность: 45:23
AccurateRip: 100%
Треклист:
01. L'horloge (05:04)
02. Sans Contrefacon (04:09)
03. Allan (04:49)
04. Pourvu Qu'elles Soient Douces (04:54)
05. La Ronde Triste (04:15)
06. Ainsi Soit Je... (06:20)
07. Sans Logique (04:31)
08. Jardin De Vienne (05:18)
09. Deshabillez-Moi (03:48)
10. The Farmer's Conclusion (02:14)

EAC + AccurateRip LOG

Exact Audio Copy V0.99 prebeta 4 from 23. January 2008
Отчёт EAC об извлечении, выполненном 31. августа 2008, 22:39
Mylene Farmer / Ainsi Soit Je...
Дисковод: MAD DOG MD-16XDVD9A2 Adapter: 3 ID: 0
Режим чтения : ДостоверностьИспользование точного потока : ДаОтключение кэша аудио : ДаИспользование указателей C2 : Нет
Коррекция смещения при чтении : 48Способность читать области Lead-in и Lead-out : НетЗаполнение пропущенных сэмплов тишиной : ДаУдаление блоков с тишиной в начале и конце : НетПри вычислениях CRC использовались нулевые сэмплы : ДаИнтерфейс : Установленный внешний ASPI-интерфейс
Выходной формат : Внутренние WAV-операцииФормат сэмплов : 44.100 Гц; 16 бит; стерео
TOC извлечённого CD
Трек | Старт | Длительность | Начальный сектор | Конечный сектор --------------------------------------------------------------------- 1 | 0:00.33 | 5:05.25 | 33 | 22932 2 | 5:05.58 | 4:09.37 | 22933 | 41644 3 | 9:15.20 | 4:50.38 | 41645 | 63432 4 | 14:05.58 | 4:56.50 | 63433 | 85682 5 | 19:02.33 | 4:16.00 | 85683 | 104882 6 | 23:18.33 | 6:22.12 | 104883 | 133544 7 | 29:40.45 | 4:34.38 | 133545 | 154132 8 | 34:15.08 | 5:21.37 | 154133 | 178244 9 | 39:36.45 | 3:50.63 | 178245 | 195557 10 | 43:27.33 | 2:17.12 | 195558 | 205844
Характеристики диапазона извлечения и сообщения об ошибках
Выбранный диапазон
Имя файла K:\LOSSLESS\Mylene Farmer\Mylene Farmer - Ainsi Soit Je\Mylene Farmer - Ainsi Soit Je....wav
Пиковый уровень 96.3 % Качество диапазона 100.0 % CRC теста BFE7497B CRC копии BFE7497B Копирование... OK
Ошибок не произошло
AccurateRip: сводка
Трек 1 точное извлечение (доверие 10) [B14F9ED8]Трек 2 точное извлечение (доверие 9) [0F1105B6]Трек 3 точное извлечение (доверие 9) [7B3336B3]Трек 4 точное извлечение (доверие 9) [05C2FF41]Трек 5 точное извлечение (доверие 9) [E62396A9]Трек 6 точное извлечение (доверие 9) [DA774611]Трек 7 точное извлечение (доверие 9) [D2F8575C]Трек 8 точное извлечение (доверие 9) [0340C4F2]Трек 9 точное извлечение (доверие 9) [ACDFC44B]Трек 10 точное извлечение (доверие 9) [91F64D2D]
Все треки извлечены точно
Конец отчёта

1988 - Ainsi soit je... (Japan)

Год выпуска: 1988
Производитель: Polydor, Japan POCP 1001
Продолжительность: 45.48
AccurateRip: достоверность определена
Треклист:
01. L'horloge [0:05:05.23]
02. Sans contrefacon [0:04:09.45]
03. Allan [0:04:50.47]
04. Pourvu qu'elles soint douces [0:04:56.38]
05. La ronde triste [0:04:20.20]
06. Ainsi soit je... [0:06:22.12]
07. Sans logique [0:04:34.40]
08. Jardin de vienne [0:05:21.35]
09. Deshabillez-moi [0:03:50.65]
10. The Farmer's Conclusion [0:02:16.20]

EAC + AccurateRip LOG

Exact Audio Copy V0.99 prebeta 5 from 4. May 2009
EAC extraction logfile from 9. July 2010, 20:41
Mylene Farmer / Ainsi soit je... (Japan)
Used drive : MAD DOG MD-16XDVD9A2 Adapter: 3 ID: 0
Read mode : SecureUtilize accurate stream : YesDefeat audio cache : YesMake use of C2 pointers : No
Read offset correction : 48Overread into Lead-In and Lead-Out : NoFill up missing offset samples with silence : YesDelete leading and trailing silent blocks : NoNull samples used in CRC calculations : YesUsed interface : Installed external ASPI interface
Used output format : Internal WAV RoutinesSample format : 44.100 Hz; 16 Bit; Stereo
TOC of the extracted CD
Track | Start | Length | Start sector | End sector --------------------------------------------------------- 1 | 0:00.37 | 5:05.23 | 37 | 22934 2 | 5:05.60 | 4:09.45 | 22935 | 41654 3 | 9:15.30 | 4:50.47 | 41655 | 63451 4 | 14:06.02 | 4:56.38 | 63452 | 85689 5 | 19:02.40 | 4:20.20 | 85690 | 105209 6 | 23:22.60 | 6:22.12 | 105210 | 133871 7 | 29:44.72 | 4:34.40 | 133872 | 154461 8 | 34:19.37 | 5:21.35 | 154462 | 178571 9 | 39:40.72 | 3:50.65 | 178572 | 195886 10 | 43:31.62 | 2:16.20 | 195887 | 206106
Range status and errors
Selected range
Filename K:\LOSSLESS\Mylene Farmer\1988 - Ainsi soit je... (Japan)\Mylene Farmer - Ainsi soit je... (Japan).wav
Peak level 98.1 % Range quality 100.0 % Test CRC 246AA14D Copy CRC 246AA14D Copy OK
No errors occurred
AccurateRip summary
Track 1 cannot be verified as accurate (confidence 2) [3F822E89], AccurateRip returned [C9837C17]Track 2 cannot be verified as accurate (confidence 2) [75F11FA3], AccurateRip returned [07DE9386]Track 3 cannot be verified as accurate (confidence 2) [398DA2F7], AccurateRip returned [14B27EAE]Track 4 cannot be verified as accurate (confidence 2) [3B7367C7], AccurateRip returned [A9100041]Track 5 cannot be verified as accurate (confidence 2) [525260BB], AccurateRip returned [5ADA8037]Track 6 cannot be verified as accurate (confidence 2) [2B92E011], AccurateRip returned [A05A44CE]Track 7 cannot be verified as accurate (confidence 2) [0BB1BCF3], AccurateRip returned [0AE241B7]Track 8 cannot be verified as accurate (confidence 2) [D4237940], AccurateRip returned [AA5F6F6F]Track 9 cannot be verified as accurate (confidence 2) [B9D048E4], AccurateRip returned [E8839BD9]Track 10 cannot be verified as accurate (confidence 2) [31C7AA09], AccurateRip returned [539A50C2]
No tracks could be verified as accurateYou may have a different pressing from the one(s) in the database
End of status report

1989 - En concert (Live, 2CD)

Год выпуска: 1989
Производитель: France, Polydor
AccurateRip: 100%
CD1
Продолжительность:
54:36
Треклист:
01. Proloque (05:50)
02. L'Horloge (04:46)
03. Plus Grandir (04:47)
04. Sans Logique (05:08)
05. Maman A Tort (06:12)
06. Deshabillez-Mois (03:55)
07. Puisque (08:12)
08. Pourvu Qu'elles Soient Douces (08:57)
09. Allan (06:50)
CD2
Продолжительность:
59:00
Треклист:
01. A Quoi Je Sers ... (05:16)
02. Sans Contrefacon (06:14)
03. Jardin De Vienne (06:00)
04. Tristana (08:12)
05. Ainsi Soit Je ... (07:49)
06. Libertine (12:07)
07. Mouvements De Lune (Partie I) (04:08)
08. Je Voudraits Tant Que Tu Comprennes (04:04)
09. Mouvements De Lune (Partie II) (05:11)

EAC + AccurateRip LOG

Exact Audio Copy V0.99 prebeta 4 from 23. January 2008
Отчёт EAC об извлечении, выполненном 3. сентября 2008, 22:16
Mylene Farmer / En concert CD1
Дисковод: MAD DOG MD-16XDVD9A2 Adapter: 3 ID: 0
Режим чтения : ДостоверностьИспользование точного потока : ДаОтключение кэша аудио : ДаИспользование указателей C2 : Нет
Коррекция смещения при чтении : 48Способность читать области Lead-in и Lead-out : НетЗаполнение пропущенных сэмплов тишиной : ДаУдаление блоков с тишиной в начале и конце : НетПри вычислениях CRC использовались нулевые сэмплы : ДаИнтерфейс : Установленный внешний ASPI-интерфейс
Выходной формат : Внутренние WAV-операцииФормат сэмплов : 44.100 Гц; 16 бит; стерео
TOC извлечённого CD
Трек | Старт | Длительность | Начальный сектор | Конечный сектор --------------------------------------------------------------------- 1 | 0:00.32 | 5:49.60 | 32 | 26266 2 | 5:50.17 | 4:46.03 | 26267 | 47719 3 | 10:36.20 | 4:46.70 | 47720 | 69239 4 | 15:23.15 | 5:07.40 | 69240 | 92304 5 | 20:30.55 | 6:12.25 | 92305 | 120229 6 | 26:43.05 | 3:55.17 | 120230 | 137871 7 | 30:38.22 | 8:11.38 | 137872 | 174734 8 | 38:49.60 | 8:56.50 | 174735 | 214984 9 | 47:46.35 | 6:50.37 | 214985 | 245771
Характеристики диапазона извлечения и сообщения об ошибках
Выбранный диапазон
Имя файла K:\LOSSLESS\Mylene Farmer\Mylene Farmer - En concert\Mylene Farmer - En concert CD1\Mylene Farmer - En concert CD1.wav
Пиковый уровень 100.0 % Качество диапазона 99.9 % CRC теста A6312F2E CRC копии A6312F2E Копирование... OK
Ошибок не произошло
AccurateRip: сводка
Трек 1 точное извлечение (доверие 2) [22923BDF]Трек 2 точное извлечение (доверие 2) [571A0CCC]Трек 3 точное извлечение (доверие 2) [1E7C4812]Трек 4 точное извлечение (доверие 2) [7A131793]Трек 5 точное извлечение (доверие 2) [E2E3E1BB]Трек 6 точное извлечение (доверие 2) [DF248927]Трек 7 точное извлечение (доверие 2) [2BB75744]Трек 8 точное извлечение (доверие 2) [3653EBB7]Трек 9 точное извлечение (доверие 2) [7538CCE0]
Все треки извлечены точно
Конец отчёта
Exact Audio Copy V0.99 prebeta 4 from 23. January 2008
Отчёт EAC об извлечении, выполненном 3. сентября 2008, 22:49
Mylene Farmer / En concert CD2
Дисковод: MAD DOG MD-16XDVD9A2 Adapter: 3 ID: 0
Режим чтения : ДостоверностьИспользование точного потока : ДаОтключение кэша аудио : ДаИспользование указателей C2 : Нет
Коррекция смещения при чтении : 48Способность читать области Lead-in и Lead-out : НетЗаполнение пропущенных сэмплов тишиной : ДаУдаление блоков с тишиной в начале и конце : НетПри вычислениях CRC использовались нулевые сэмплы : ДаИнтерфейс : Установленный внешний ASPI-интерфейс
Выходной формат : Внутренние WAV-операцииФормат сэмплов : 44.100 Гц; 16 бит; стерео
TOC извлечённого CD
Трек | Старт | Длительность | Начальный сектор | Конечный сектор --------------------------------------------------------------------- 1 | 0:00.32 | 5:15.48 | 32 | 23704 2 | 5:16.05 | 6:13.72 | 23705 | 51751 3 | 11:30.02 | 6:00.03 | 51752 | 78754 4 | 17:30.05 | 8:12.02 | 78755 | 115656 5 | 25:42.07 | 7:48.48 | 115657 | 150804 6 | 33:30.55 | 12:06.67 | 150805 | 205321 7 | 45:37.47 | 4:07.70 | 205322 | 223916 8 | 49:45.42 | 4:03.65 | 223917 | 242206 9 | 53:49.32 | 5:10.63 | 242207 | 265519
Характеристики диапазона извлечения и сообщения об ошибках
Выбранный диапазон
Имя файла K:\LOSSLESS\Mylene Farmer\Mylene Farmer - En concert\Mylene Farmer - En concert CD2\Mylene Farmer - En concert CD2.wav
Пиковый уровень 100.0 % Качество диапазона 99.9 % CRC теста F615CE3C CRC копии F615CE3C Копирование... OK
Ошибок не произошло
AccurateRip: сводка
Трек 1 точное извлечение (доверие 2) [C12E526B]Трек 2 точное извлечение (доверие 2) [C2F1D9EC]Трек 3 точное извлечение (доверие 2) [725AF823]Трек 4 точное извлечение (доверие 2) [AD534403]Трек 5 точное извлечение (доверие 2) [0B70194E]Трек 6 точное извлечение (доверие 2) [A6D9796C]Трек 7 точное извлечение (доверие 2) [71D10631]Трек 8 точное извлечение (доверие 2) [59299BA6]Трек 9 точное извлечение (доверие 2) [E688F48E]
Все треки извлечены точно
Конец отчёта

1991 - L'autre...

Год выпуска: 1991
Производитель: France, Polydor
Продолжительность: 55:03
AccurateRip: 100%
Треклист:
01. Agnus Dei (05:46)
02. Desenchantee (05:23)
03. L'autre (05:21)
04. Je T'aime Melancolie (05:33)
05. Psychiatric (06:09)
06. Regrets (05:15)
07. Pas De Doute (05:15)
08. Il N'y A Pas D'ailleurs (05:44)
09. Beyond My Control (05:25)
10. Nous Souviendrons Nous (05:11)

EAC + AccurateRip LOG

Exact Audio Copy V0.99 prebeta 4 from 23. January 2008
Отчёт EAC об извлечении, выполненном 1. сентября 2008, 5:54
Mylene Farmer / L'autre
Дисковод: MAD DOG MD-16XDVD9A2 Adapter: 3 ID: 0
Режим чтения : ДостоверностьИспользование точного потока : ДаОтключение кэша аудио : ДаИспользование указателей C2 : Нет
Коррекция смещения при чтении : 48Способность читать области Lead-in и Lead-out : НетЗаполнение пропущенных сэмплов тишиной : ДаУдаление блоков с тишиной в начале и конце : НетПри вычислениях CRC использовались нулевые сэмплы : ДаИнтерфейс : Установленный внешний ASPI-интерфейс
Выходной формат : Внутренние WAV-операцииФормат сэмплов : 44.100 Гц; 16 бит; стерео
TOC извлечённого CD
Трек | Старт | Длительность | Начальный сектор | Конечный сектор --------------------------------------------------------------------- 1 | 0:00.33 | 5:46.07 | 33 | 25989 2 | 5:46.40 | 5:23.28 | 25990 | 50242 3 | 11:09.68 | 5:20.62 | 50243 | 74304 4 | 16:30.55 | 5:33.33 | 74305 | 99312 5 | 22:04.13 | 6:08.55 | 99313 | 126967 6 | 28:12.68 | 5:14.62 | 126968 | 150579 7 | 33:27.55 | 5:15.28 | 150580 | 174232 8 | 38:43.08 | 5:43.70 | 174233 | 200027 9 | 44:27.03 | 5:25.27 | 200028 | 224429 10 | 49:52.30 | 5:11.03 | 224430 | 247757
Характеристики диапазона извлечения и сообщения об ошибках
Выбранный диапазон
Имя файла K:\LOSSLESS\Mylene Farmer\Mylene Farmer - L'autre\Mylene Farmer - L'autre.wav
Пиковый уровень 100.0 % Качество диапазона 99.7 % CRC теста A651A1E7 CRC копии A651A1E7 Копирование... OK
Ошибок не произошло
AccurateRip: сводка
Трек 1 точное извлечение (доверие 7) [C01C446E]Трек 2 точное извлечение (доверие 8) [CDF89B2F]Трек 3 точное извлечение (доверие 7) [1BAF7CED]Трек 4 точное извлечение (доверие 7) [9F4C9DED]Трек 5 точное извлечение (доверие 6) [D7D3FA7B]Трек 6 точное извлечение (доверие 7) [DAD8EB68]Трек 7 точное извлечение (доверие 7) [F71641D4]Трек 8 точное извлечение (доверие 7) [51C56F67]Трек 9 точное извлечение (доверие 7) [988E33DC]Трек 10 точное извлечение (доверие 7) [E0C507F9]
Все треки извлечены точно
Конец отчёта

1991 - L'autre (Japan)

Год выпуска: 1991
Производитель: Polydor, Japan POCP 1125
Продолжительность: 55.04
AccurateRip: 100%
Треклист:
01. Agnus Dei [0:05:46.10]
02. Desenchantee [0:05:23.35]
03. L'autre [0:05:20.63]
04. Je t'aime melancolie [0:05:33.30]
05. Psychiatric [0:06:08.55]
06. Regrets (En duo avec Jean-Louis Murat) [0:05:14.67]
07. Pas de doute [0:05:15.28]
08. Il n'y a pas d'ailleurs [0:05:43.67]
09. Beyond my control [0:05:25.33]
10. Nous souviendrons nous [0:05:11.07]

EAC + AccurateRip LOG

Exact Audio Copy V0.99 prebeta 5 from 4. May 2009
EAC extraction logfile from 10. August 2010, 18:44
Mylene Farmer / L'autre (Japan)
Used drive : MAD DOG MD-16XDVD9A2 Adapter: 3 ID: 0
Read mode : SecureUtilize accurate stream : YesDefeat audio cache : YesMake use of C2 pointers : No
Read offset correction : 48Overread into Lead-In and Lead-Out : NoFill up missing offset samples with silence : YesDelete leading and trailing silent blocks : NoNull samples used in CRC calculations : YesUsed interface : Installed external ASPI interface
Used output format : Internal WAV RoutinesSample format : 44.100 Hz; 16 Bit; Stereo
TOC of the extracted CD
Track | Start | Length | Start sector | End sector --------------------------------------------------------- 1 | 0:00.37 | 5:46.10 | 37 | 25996 2 | 5:46.47 | 5:23.35 | 25997 | 50256 3 | 11:10.07 | 5:20.63 | 50257 | 74319 4 | 16:30.70 | 5:33.30 | 74320 | 99324 5 | 22:04.25 | 6:08.55 | 99325 | 126979 6 | 28:13.05 | 5:14.67 | 126980 | 150596 7 | 33:27.72 | 5:15.28 | 150597 | 174249 8 | 38:43.25 | 5:43.67 | 174250 | 200041 9 | 44:27.17 | 5:25.33 | 200042 | 224449 10 | 49:52.50 | 5:11.07 | 224450 | 247781
Range status and errors
Selected range
Filename E:\TORRENT\Mylene Farmer\Albums\1991 - L'autre (Japan)\Mylene Farmer - L'autre (Japan).wav
Peak level 98.1 % Range quality 99.9 % Test CRC 9A656D6D Copy CRC 9A656D6D Copy OK
No errors occurred
AccurateRip summary
Track 1 accurately ripped (confidence 2) [FB5B80B3]Track 2 accurately ripped (confidence 2) [A28E8CA4]Track 3 accurately ripped (confidence 2) [F611A354]Track 4 accurately ripped (confidence 2) [D4F5BCC7]Track 5 accurately ripped (confidence 2) [183C0FC0]Track 6 accurately ripped (confidence 2) [F3D39D59]Track 7 accurately ripped (confidence 2) [CA56365C]Track 8 accurately ripped (confidence 2) [2699D53F]Track 9 accurately ripped (confidence 2) [327CE6F8]Track 10 accurately ripped (confidence 2) [28318CA7]
All tracks accurately ripped
End of status report

1992 - Dance Remixes (2CD)

Год выпуска: 1992
Производитель: France, Polydor
AccurateRip: 100%
CD1
Продолжительность:
57:23
Треклист:
01. We'll Never Die (Techno Remix) (07:30)
02. Sans Contrefacon (Boy Remix) (05:49)
03. Tristana (Remix Club) (07:15)
04. Sans Logique (Illogical Club Remix) (07:15)
05. Allan (Extended Mix) (07:58)
06. Ainsi Soit Je (Maxi Remix) (07:12)
07. Plus Grandir (Mother's Live Remix) (06:26)
08. A Quoi Je Sers (Club Remix) (07:58)
CD2
Продолжительность:
53:05
Треклист:
01. Que Mon Coeur Lache (Extended Dance Remix) (8:08)
02. Pourvu Qu'Elles Soient Douces (Remix Club) (6:36)
03. Libertine (Carnal Sins Remix) (7:00)
04. Je T'Aime Melancolie (Extended Club Remix) (7:48)
05. Regrets (Extended Club Remix) (7:15)
06. Beyond My Control (Godforsaken Mix) (8:04)
07. Desenchantee (Remix Club) (8:14)

EAC + AccurateRip LOG

Exact Audio Copy V0.99 prebeta 4 from 23. January 2008
Отчёт EAC об извлечении, выполненном 2. сентября 2008, 7:09
Mylиne Farmer / Dance Remixes (CD1)
Дисковод: MAD DOG MD-16XDVD9A2 Adapter: 3 ID: 0
Режим чтения : ДостоверностьИспользование точного потока : ДаОтключение кэша аудио : ДаИспользование указателей C2 : Нет
Коррекция смещения при чтении : 48Способность читать области Lead-in и Lead-out : НетЗаполнение пропущенных сэмплов тишиной : ДаУдаление блоков с тишиной в начале и конце : НетПри вычислениях CRC использовались нулевые сэмплы : ДаИнтерфейс : Установленный внешний ASPI-интерфейс
Выходной формат : Внутренние WAV-операцииФормат сэмплов : 44.100 Гц; 16 бит; стерео
TOC извлечённого CD
Трек | Старт | Длительность | Начальный сектор | Конечный сектор --------------------------------------------------------------------- 1 | 0:00.00 | 7:30.08 | 0 | 33757 2 | 7:30.08 | 5:49.02 | 33758 | 59934 3 | 13:19.10 | 7:14.63 | 59935 | 92547 4 | 20:33.73 | 7:15.27 | 92548 | 125199 5 | 27:49.25 | 7:58.15 | 125200 | 161064 6 | 35:47.40 | 7:11.70 | 161065 | 193459 7 | 42:59.35 | 6:26.00 | 193460 | 222409 8 | 49:25.35 | 7:57.63 | 222410 | 258247
Характеристики диапазона извлечения и сообщения об ошибках
Выбранный диапазон
Имя файла K:\LOSSLESS\Mylene Farmer\Mylиne Farmer - Dance Remixes\Mylиne Farmer - Dance Remixes (CD1)\Mylиne Farmer - Dance Remixes (CD1).wav
Пиковый уровень 100.0 % Качество диапазона 99.9 % CRC теста 8097845D CRC копии 8097845D Копирование... OK
Ошибок не произошло
AccurateRip: сводка
Трек 1 точное извлечение (доверие 4) [CE2F5BDF]Трек 2 точное извлечение (доверие 5) [C8896D38]Трек 3 точное извлечение (доверие 5) [8CD38566]Трек 4 точное извлечение (доверие 5) [B2CBA621]Трек 5 точное извлечение (доверие 5) [BD93303F]Трек 6 точное извлечение (доверие 5) [51FB7975]Трек 7 точное извлечение (доверие 5) [34829D4A]Трек 8 точное извлечение (доверие 4) [4F77D8BB]
Все треки извлечены точно
Конец отчёта
Exact Audio Copy V0.99 prebeta 4 from 23. January 2008
Отчёт EAC об извлечении, выполненном 2. сентября 2008, 20:07
Mylиne Farmer / Dance Remixes (CD2)
Дисковод: MAD DOG MD-16XDVD9A2 Adapter: 3 ID: 0
Режим чтения : ДостоверностьИспользование точного потока : ДаОтключение кэша аудио : ДаИспользование указателей C2 : Нет
Коррекция смещения при чтении : 48Способность читать области Lead-in и Lead-out : НетЗаполнение пропущенных сэмплов тишиной : ДаУдаление блоков с тишиной в начале и конце : НетПри вычислениях CRC использовались нулевые сэмплы : ДаИнтерфейс : Установленный внешний ASPI-интерфейс
Выходной формат : Внутренние WAV-операцииФормат сэмплов : 44.100 Гц; 16 бит; стерео
TOC извлечённого CD
Трек | Старт | Длительность | Начальный сектор | Конечный сектор --------------------------------------------------------------------- 1 | 0:00.00 | 8:07.45 | 0 | 36569 2 | 8:07.45 | 6:36.35 | 36570 | 66304 3 | 14:44.05 | 7:00.25 | 66305 | 97829 4 | 21:44.30 | 7:48.15 | 97830 | 132944 5 | 29:32.45 | 7:14.58 | 132945 | 165552 6 | 36:47.28 | 8:03.60 | 165553 | 201837 7 | 44:51.13 | 8:13.50 | 201838 | 238862
Характеристики диапазона извлечения и сообщения об ошибках
Выбранный диапазон
Имя файла K:\LOSSLESS\Mylene Farmer\Mylиne Farmer - Dance Remixes\Mylиne Farmer - Dance Remixes (CD2)\Mylиne Farmer - Dance Remixes (CD2).wav
Пиковый уровень 100.0 % Качество диапазона 99.9 % CRC теста 7D768B49 CRC копии 7D768B49 Копирование... OK
Ошибок не произошло
AccurateRip: сводка
Трек 1 точное извлечение (доверие 4) [FCF5BDAF]Трек 2 точное извлечение (доверие 4) [473DCF60]Трек 3 точное извлечение (доверие 4) [4E92124B]Трек 4 точное извлечение (доверие 4) [BDB77FA0]Трек 5 точное извлечение (доверие 4) [E72E049F]Трек 6 точное извлечение (доверие 4) [90BDD2F4]Трек 7 точное извлечение (доверие 4) [715FDBCA]
Все треки извлечены точно
Конец отчёта

1993 - Dance Remixes

Год выпуска: 1993
Производитель: Germany, Polydor
Продолжительность: 74:01
AccurateRip: достоверность определена
Треклист:
01. My Soul Is Slashed (The Rubber Remix) 07:35
02. Sans Contrefacon (Boy Remix) 05:49
03. Je T'Aime Melancolie (Extended Club Remix) 07:47
04. Allan (Extended Mix) 07:58
05. Ainsi Soit Je (Maxi Remix) 07:11
06. We'll Never Die (Techno Remix) 07:29
07. Sans Logique (Illogical Club Remix) 07:15
08. Pourvu Qu'Elles Soient Douces (Remix Club) 06:35
09. Beyond My Control (Godforsaken Mix) 08:03
10. Desenchantee (Remix Club) 08:12

EAC + AccurateRip LOG

Exact Audio Copy V0.99 prebeta 4 from 23. January 2008
EAC extraction logfile from 26. May 2009, 14:07
Mylene Farmer / Dance Remixes
Used drive : MAD DOG MD-16XDVD9A2 Adapter: 3 ID: 0
Read mode : SecureUtilize accurate stream : YesDefeat audio cache : YesMake use of C2 pointers : No
Read offset correction : 48Overread into Lead-In and Lead-Out : NoFill up missing offset samples with silence : YesDelete leading and trailing silent blocks : NoNull samples used in CRC calculations : YesUsed interface : Installed external ASPI interface
Used output format : Internal WAV RoutinesSample format : 44.100 Hz; 16 Bit; Stereo
TOC of the extracted CD
Track | Start | Length | Start sector | End sector --------------------------------------------------------- 1 | 0:00.32 | 7:35.68 | 32 | 34224 2 | 7:36.25 | 5:49.57 | 34225 | 60456 3 | 13:26.07 | 7:47.70 | 60457 | 95551 4 | 21:14.02 | 7:58.20 | 95552 | 131421 5 | 29:12.22 | 7:11.60 | 131422 | 163806 6 | 36:24.07 | 7:29.70 | 163807 | 197551 7 | 43:54.02 | 7:15.25 | 197552 | 230201 8 | 51:09.27 | 6:35.45 | 230202 | 259871 9 | 57:44.72 | 8:03.58 | 259872 | 296154 10 | 65:48.55 | 8:12.42 | 296155 | 333096
Range status and errors
Selected range
Filename K:\LOSSLESS\Mylene Farmer\Mylene Farmer - Dance Remixes 1CD\Mylene Farmer - Dance Remixes.wav
Peak level 100.0 % Range quality 100.0 % Test CRC 96E1E377 Copy CRC 96E1E377 Copy OK
No errors occurred
AccurateRip summary
Track 1 cannot be verified as accurate (confidence 9) [1B6FE50F], AccurateRip returned [81621FE1]Track 2 cannot be verified as accurate (confidence 9) [3AD0063F], AccurateRip returned [5D73CEB4]Track 3 cannot be verified as accurate (confidence 9) [677EDF5D], AccurateRip returned [D094F2A1]Track 4 cannot be verified as accurate (confidence 9) [910A06A0], AccurateRip returned [E201FC7D]Track 5 cannot be verified as accurate (confidence 9) [EA5EA515], AccurateRip returned [CB62241A]Track 6 cannot be verified as accurate (confidence 9) [4E6CFD60], AccurateRip returned [808FA01F]Track 7 cannot be verified as accurate (confidence 9) [D0389FB8], AccurateRip returned [E8C15389]Track 8 cannot be verified as accurate (confidence 9) [765D0560], AccurateRip returned [CB627E09]Track 9 cannot be verified as accurate (confidence 9) [E2F6833D], AccurateRip returned [E049B6D5]Track 10 cannot be verified as accurate (confidence 9) [AD1747C1], AccurateRip returned [DDFA1F2B]
No tracks could be verified as accurateYou may have a different pressing from the one(s) in the database
End of status report

1995 - Anamorphosee

Год выпуска: 1995
Производитель: Germany, Polydor
Продолжительность: 57:19
AccurateRip: 100%
Треклист:
01. California (05:00)
02. Vertige (05:29)
03. Mylene S'en Fout (04:31)
04. L'instant X (04:46)
05. Eaunanisme (05:08)
06. Et Tournoie... (04:29)
07. XXL (04:27)
08. Rever (05:22)
09. Alice (05:22)
10. Comme J'ai Mal (03:54)
11. Tomber 7 Fois... (04:50)
12. Laisse Le Vent Emporter Tout (04:00)

EAC + AccurateRip LOG

Exact Audio Copy V0.99 prebeta 4 from 23. January 2008
Отчёт EAC об извлечении, выполненном 1. сентября 2008, 6:46
Mylиne Farmer / Anamorphosйe
Дисковод: MAD DOG MD-16XDVD9A2 Adapter: 3 ID: 0
Режим чтения : ДостоверностьИспользование точного потока : ДаОтключение кэша аудио : ДаИспользование указателей C2 : Нет
Коррекция смещения при чтении : 48Способность читать области Lead-in и Lead-out : НетЗаполнение пропущенных сэмплов тишиной : ДаУдаление блоков с тишиной в начале и конце : НетПри вычислениях CRC использовались нулевые сэмплы : ДаИнтерфейс : Установленный внешний ASPI-интерфейс
Выходной формат : Внутренние WAV-операцииФормат сэмплов : 44.100 Гц; 16 бит; стерео
TOC извлечённого CD
Трек | Старт | Длительность | Начальный сектор | Конечный сектор --------------------------------------------------------------------- 1 | 0:00.00 | 4:59.62 | 0 | 22486 2 | 4:59.62 | 5:29.25 | 22487 | 47186 3 | 10:29.12 | 4:30.25 | 47187 | 67461 4 | 14:59.37 | 4:45.50 | 67462 | 88886 5 | 19:45.12 | 5:08.58 | 88887 | 112044 6 | 24:53.70 | 4:58.00 | 112045 | 134394 7 | 29:51.70 | 4:26.52 | 134395 | 154396 8 | 34:18.47 | 5:22.05 | 154397 | 178551 9 | 39:40.52 | 5:21.58 | 178552 | 202684 10 | 45:02.35 | 3:54.02 | 202685 | 220236 11 | 48:56.37 | 4:50.28 | 220237 | 242014 12 | 53:46.65 | 3:59.30 | 242015 | 259969
Характеристики диапазона извлечения и сообщения об ошибках
Выбранный диапазон
Имя файла K:\LOSSLESS\Mylene Farmer\Mylиne Farmer - Anamorphosйe\Mylиne Farmer - Anamorphosйe.wav
Пиковый уровень 100.0 % Качество диапазона 100.0 % CRC теста C2CE64C8 CRC копии C2CE64C8 Копирование... OK
Ошибок не произошло
AccurateRip: сводка
Трек 1 точное извлечение (доверие 2) [E6F14593]Трек 2 точное извлечение (доверие 2) [36A9DC43]Трек 3 точное извлечение (доверие 2) [82D19652]Трек 4 точное извлечение (доверие 2) [42819EA0]Трек 5 точное извлечение (доверие 2) [BBB8D99D]Трек 6 точное извлечение (доверие 2) [865DA319]Трек 7 точное извлечение (доверие 2) [41C445EB]Трек 8 точное извлечение (доверие 2) [822B15AE]Трек 9 точное извлечение (доверие 2) [3861AE87]Трек 10 точное извлечение (доверие 2) [6F6981F7]Трек 11 точное извлечение (доверие 2) [3A4CEE6D]Трек 12 точное извлечение (доверие 2) [B944B172]
Все треки извлечены точно
Конец отчёта

1995 - Anamorphosee (Japan)

Год выпуска: 1995
Производитель: Polydor, Japan POCP 7085
Продолжительность: 1.07.47
AccurateRip: 100%
Треклист:
01. California [0:04:59.55]
02. Vertige [0:05:29.30]
03. Mylene s'en fout [0:04:31.40]
04. L'instant X [0:04:45.72]
05. Eaunanisme [0:05:08.23]
06. Et tournoie... [0:04:29.07]
07. XXL [0:04:26.48]
08. Rever [0:05:22.07]
09. Alice [0:05:21.60]
10. Comme j'ai mal [0:03:53.73]
11. Tomber 7 fois... [0:04:50.27]
12. Laisse le vent emporter tout [0:04:01.60]
13. Alice (New Mix) [0:05:21.35]
14. XXL (Extra Large Remix) [0:05:04.68]

EAC + AccurateRip LOG

Exact Audio Copy V0.99 prebeta 5 from 4. May 2009
EAC extraction logfile from 13. July 2010, 20:23
Mylene Farmer / Anamorphosee (Japan)
Used drive : MAD DOG MD-16XDVD9A2 Adapter: 3 ID: 0
Read mode : SecureUtilize accurate stream : YesDefeat audio cache : YesMake use of C2 pointers : No
Read offset correction : 48Overread into Lead-In and Lead-Out : NoFill up missing offset samples with silence : YesDelete leading and trailing silent blocks : NoNull samples used in CRC calculations : YesUsed interface : Installed external ASPI interface
Used output format : Internal WAV RoutinesSample format : 44.100 Hz; 16 Bit; Stereo
TOC of the extracted CD
Track | Start | Length | Start sector | End sector --------------------------------------------------------- 1 | 0:00.00 | 4:59.55 | 0 | 22479 2 | 4:59.55 | 5:29.30 | 22480 | 47184 3 | 10:29.10 | 4:31.40 | 47185 | 67549 4 | 15:00.50 | 4:45.72 | 67550 | 88996 5 | 19:46.47 | 5:08.23 | 88997 | 112119 6 | 24:54.70 | 4:29.07 | 112120 | 132301 7 | 29:24.02 | 4:26.48 | 132302 | 152299 8 | 33:50.50 | 5:22.07 | 152300 | 176456 9 | 39:12.57 | 5:21.60 | 176457 | 200591 10 | 44:34.42 | 3:53.73 | 200592 | 218139 11 | 48:28.40 | 4:50.27 | 218140 | 239916 12 | 53:18.67 | 4:01.60 | 239917 | 258051 13 | 57:20.52 | 5:21.35 | 258052 | 282161 14 | 62:42.12 | 5:04.68 | 282162 | 305029
Range status and errors
Selected range
Filename K:\LOSSLESS\Mylene Farmer\1995 - Anamorphosee (Japan)\Mylene Farmer - Anamorphosee (Japan).wav
Peak level 100.0 % Range quality 100.0 % Test CRC A6F7698A Copy CRC A6F7698A Copy OK
No errors occurred
AccurateRip summary
Track 1 accurately ripped (confidence 4) [71C213F8]Track 2 accurately ripped (confidence 4) [0CBE453C]Track 3 accurately ripped (confidence 4) [6AD6940A]Track 4 accurately ripped (confidence 4) [637ED398]Track 5 accurately ripped (confidence 4) [9795AF6F]Track 6 accurately ripped (confidence 4) [93E0271F]Track 7 accurately ripped (confidence 4) [26219799]Track 8 accurately ripped (confidence 4) [9C8B97C2]Track 9 accurately ripped (confidence 4) [4F1927B0]Track 10 accurately ripped (confidence 4) [CEF385D9]Track 11 accurately ripped (confidence 4) [721A2D54]Track 12 accurately ripped (confidence 4) [2E8075ED]Track 13 accurately ripped (confidence 4) [E9E62761]Track 14 accurately ripped (confidence 4) [E28A324A]
All tracks accurately ripped
End of status report

1997 - Live A Bercy (Live, 2CD)

Год выпуска: 1997
Производитель: France, Polydor
AccurateRip: 100%
CD1
Продолжительность:
59.20
Треклист:
01. Ouverture (04:41)
02. Vertige (06:25)
03. California (07:12)
04. Que mon coeur lache (04:43)
05. Et tournoie... (04:31)
06. Je t'aime melancolie (05:14)
07. L'autre... (05:47)
08. Libertine (05:35)
09. L'instant X (09:41)
10. Alice (05:31)
CD2
Продолжительность:
58.53
Треклист:
01. Comme j'ai mal (04:42)
02. Sans contrefacon (04:23)
03. Mylene s'en fout (05:37)
04. Desenchantee (07:26)
05. Rever (08:26)
06. Laisse le vent emporter tout (06:30)
07. Tomber 7 fois... (05:05)
08. Ainsi soit-je (04:39)
09. La poupee qui fait non (en duo avec Khaled) (04:40)
10. XXL (07:26)

EAC + AccurateRip LOG

Exact Audio Copy V0.99 prebeta 4 from 23. January 2008
Отчёт EAC об извлечении, выполненном 3. сентября 2008, 23:18
Mylиne Farmer / Live а Bercy - CD1
Дисковод: MAD DOG MD-16XDVD9A2 Adapter: 3 ID: 0
Режим чтения : ДостоверностьИспользование точного потока : ДаОтключение кэша аудио : ДаИспользование указателей C2 : Нет
Коррекция смещения при чтении : 48Способность читать области Lead-in и Lead-out : НетЗаполнение пропущенных сэмплов тишиной : ДаУдаление блоков с тишиной в начале и конце : НетПри вычислениях CRC использовались нулевые сэмплы : ДаИнтерфейс : Установленный внешний ASPI-интерфейс
Выходной формат : Внутренние WAV-операцииФормат сэмплов : 44.100 Гц; 16 бит; стерео
TOC извлечённого CD
Трек | Старт | Длительность | Начальный сектор | Конечный сектор --------------------------------------------------------------------- 1 | 0:00.00 | 4:41.27 | 0 | 21101 2 | 4:41.27 | 6:24.50 | 21102 | 49951 3 | 11:06.02 | 7:12.28 | 49952 | 82379 4 | 18:18.30 | 4:42.40 | 82380 | 103569 5 | 23:00.70 | 4:30.59 | 103570 | 123878 6 | 27:31.54 | 5:14.26 | 123879 | 147454 7 | 32:46.05 | 5:46.70 | 147455 | 173474 8 | 38:33.00 | 5:34.60 | 173475 | 198584 9 | 44:07.60 | 9:41.32 | 198585 | 242191 10 | 53:49.17 | 5:30.68 | 242192 | 267009
Характеристики диапазона извлечения и сообщения об ошибках
Выбранный диапазон
Имя файла K:\LOSSLESS\Mylene Farmer\Mylиne Farmer - Live а Bercy\Mylиne Farmer - Live а Bercy - CD1\Mylиne Farmer - Live а Bercy - CD1.wav
Пиковый уровень 98.8 % Качество диапазона 99.9 % CRC теста 0A0773F7 CRC копии 0A0773F7 Копирование... OK
Ошибок не произошло
AccurateRip: сводка
Трек 1 точное извлечение (доверие 6) [CDFD9AC5]Трек 2 точное извлечение (доверие 7) [722F600C]Трек 3 точное извлечение (доверие 7) [91116B64]Трек 4 точное извлечение (доверие 6) [91A96A0E]Трек 5 точное извлечение (доверие 6) [44EB23F4]Трек 6 точное извлечение (доверие 6) [67AA2FA8]Трек 7 точное извлечение (доверие 6) [9969043C]Трек 8 точное извлечение (доверие 6) [3A9011B2]Трек 9 точное извлечение (доверие 6) [5CBBFD57]Трек 10 точное извлечение (доверие 6) [0BCCBB4C]
Все треки извлечены точно
Конец отчёта
Exact Audio Copy V0.99 prebeta 4 from 23. January 2008
Отчёт EAC об извлечении, выполненном 3. сентября 2008, 23:49
Mylиne Farmer / Live А Bercy (CD 2)
Дисковод: MAD DOG MD-16XDVD9A2 Adapter: 3 ID: 0
Режим чтения : ДостоверностьИспользование точного потока : ДаОтключение кэша аудио : ДаИспользование указателей C2 : Нет
Коррекция смещения при чтении : 48Способность читать области Lead-in и Lead-out : НетЗаполнение пропущенных сэмплов тишиной : ДаУдаление блоков с тишиной в начале и конце : НетПри вычислениях CRC использовались нулевые сэмплы : ДаИнтерфейс : Установленный внешний ASPI-интерфейс
Выходной формат : Внутренние WAV-операцииФормат сэмплов : 44.100 Гц; 16 бит; стерео
TOC извлечённого CD
Трек | Старт | Длительность | Начальный сектор | Конечный сектор --------------------------------------------------------------------- 1 | 0:00.00 | 4:41.65 | 0 | 21139 2 | 4:41.65 | 4:22.70 | 21140 | 40859 3 | 9:04.60 | 5:36.57 | 40860 | 66116 4 | 14:41.42 | 7:26.08 | 66117 | 99574 5 | 22:07.50 | 8:26.00 | 99575 | 137524 6 | 30:33.50 | 6:29.62 | 137525 | 166761 7 | 37:03.37 | 5:05.00 | 166762 | 189636 8 | 42:08.37 | 4:38.72 | 189637 | 210558 9 | 46:47.34 | 4:39.53 | 210559 | 231536 10 | 51:27.12 | 7:25.60 | 231537 | 264971
Характеристики диапазона извлечения и сообщения об ошибках
Выбранный диапазон
Имя файла K:\LOSSLESS\Mylene Farmer\Mylиne Farmer - Live а Bercy\Mylиne Farmer - Live А Bercy (CD 2)\Mylиne Farmer - Live А Bercy (CD 2).wav
Пиковый уровень 98.8 % Качество диапазона 99.9 % CRC теста 81B65601 CRC копии 81B65601 Копирование... OK
Ошибок не произошло
AccurateRip: сводка
Трек 1 точное извлечение (доверие 6) [5EA0B7B4]Трек 2 точное извлечение (доверие 7) [78B2C61F]Трек 3 точное извлечение (доверие 6) [BDC04440]Трек 4 точное извлечение (доверие 8) [39A4C92D]Трек 5 точное извлечение (доверие 7) [2B6CB374]Трек 6 точное извлечение (доверие 6) [9D74711F]Трек 7 точное извлечение (доверие 6) [8D99E8EB]Трек 8 точное извлечение (доверие 6) [9E49709B]Трек 9 точное извлечение (доверие 7) [BFA9206E]Трек 10 точное извлечение (доверие 7) [A3228A2E]
Все треки извлечены точно
Конец отчёта

1999 - Innamoramento

Год выпуска: 1999
Производитель: Germany, Polydor
Продолжительность: 1:04:31
AccurateRip: 100%
Треклист:
01. L'amour Naissant (04:59)
02. L'ame-Stram-Gram (04:24)
03. Pas Le Temps De Vivre (05:17)
04. Dessine-moi Un Mouton (04:38)
05. Je Te Rends Ton Amour (05:13)
06. Mefie-Toi (05:31)
07. Innamoramento (05:28)
08. Optimistique-moi (04:23)
09. Serais-tu Lа? (04:48)
10. Consentement (04:39)
11. Et Si Vieillir M'etait Conte (04:39)
12. Souviens-toi Du Jour... (05:04)
13. Mylenium (05:29)

EAC + AccurateRip LOG

Exact Audio Copy V0.99 prebeta 4 from 23. January 2008
Отчёт EAC об извлечении, выполненном 2. сентября 2008, 5:55
Mylиne Farmer / Innamoramento
Дисковод: MAD DOG MD-16XDVD9A2 Adapter: 3 ID: 0
Режим чтения : ДостоверностьИспользование точного потока : ДаОтключение кэша аудио : ДаИспользование указателей C2 : Нет
Коррекция смещения при чтении : 48Способность читать области Lead-in и Lead-out : НетЗаполнение пропущенных сэмплов тишиной : ДаУдаление блоков с тишиной в начале и конце : НетПри вычислениях CRC использовались нулевые сэмплы : ДаИнтерфейс : Установленный внешний ASPI-интерфейс
Выходной формат : Внутренние WAV-операцииФормат сэмплов : 44.100 Гц; 16 бит; стерео
TOC извлечённого CD
Трек | Старт | Длительность | Начальный сектор | Конечный сектор --------------------------------------------------------------------- 1 | 0:00.00 | 4:58.50 | 0 | 22399 2 | 4:58.50 | 4:24.27 | 22400 | 42226 3 | 9:23.02 | 5:16.55 | 42227 | 65981 4 | 14:39.57 | 4:38.35 | 65982 | 86866 5 | 19:18.17 | 5:12.40 | 86867 | 110306 6 | 24:30.57 | 5:30.58 | 110307 | 135114 7 | 30:01.40 | 5:27.70 | 135115 | 159709 8 | 35:29.35 | 4:22.67 | 159710 | 179426 9 | 39:52.27 | 4:47.68 | 179427 | 201019 10 | 44:40.20 | 4:39.27 | 201020 | 221971 11 | 49:19.47 | 4:38.60 | 221972 | 242881 12 | 53:58.32 | 5:03.68 | 242882 | 265674 13 | 59:02.25 | 5:28.72 | 265675 | 290346
Характеристики диапазона извлечения и сообщения об ошибках
Выбранный диапазон
Имя файла K:\LOSSLESS\Mylene Farmer\Mylиne Farmer - Innamoramento\Mylиne Farmer - Innamoramento.wav
Пиковый уровень 98.8 % Качество диапазона 99.9 % CRC теста 1D471D5B CRC копии 1D471D5B Копирование... OK
Ошибок не произошло
AccurateRip: сводка
Трек 1 точное извлечение (доверие 4) [9EE0FC8A]Трек 2 точное извлечение (доверие 4) [A8C503A8]Трек 3 точное извлечение (доверие 4) [D574B176]Трек 4 точное извлечение (доверие 4) [60B5843A]Трек 5 точное извлечение (доверие 4) [07EF061A]Трек 6 точное извлечение (доверие 4) [D30872AD]Трек 7 точное извлечение (доверие 4) [61297C95]Трек 8 точное извлечение (доверие 4) [F0B3AFA4]Трек 9 точное извлечение (доверие 4) [83685EBE]Трек 10 точное извлечение (доверие 4) [F2B0D58C]Трек 11 точное извлечение (доверие 4) [5F710763]Трек 12 точное извлечение (доверие 4) [1159A387]Трек 13 точное извлечение (доверие 4) [4F32BEE5]
Все треки извлечены точно
Конец отчёта

1999 - Innamoramento (Edition Limitee)

Год выпуска: 1999
Производитель и номер диска: France, Polydor 547 338-2
Продолжительность: 1.04.31
AccurateRip: 100%
Треклист:
01. L'amour naissant [0:04:58.50]
02. L'ame-stram-gram [0:04:24.27]
03. Pas le temps de vivre [0:05:16.55]
04. Dessine-moi un mouton [0:04:38.35]
05. Je te rends ton amour [0:05:12.40]
06. Mefie-toi [0:05:30.58]
07. Innamoramento [0:05:27.69]
08. Optimistique-moi [0:04:22.68]
09. Serais-tu lа? [0:04:47.68]
10. Consentement [0:04:39.27]
11. Et si vieillir m'etait conte [0:04:38.60]
12. Souviens-toi du jour... [0:05:03.68]
13. Mylenium [0:05:28.72]

EAC + AccurateRip LOG

Exact Audio Copy V0.99 prebeta 5 from 4. May 2009
EAC extraction logfile from 11. March 2010, 19:05
Mylene Farmer / Innamoramento (Edition Limitee)
Used drive : MAD DOG MD-16XDVD9A2 Adapter: 3 ID: 0
Read mode : SecureUtilize accurate stream : YesDefeat audio cache : YesMake use of C2 pointers : No
Read offset correction : 48Overread into Lead-In and Lead-Out : NoFill up missing offset samples with silence : YesDelete leading and trailing silent blocks : NoNull samples used in CRC calculations : YesUsed interface : Installed external ASPI interface
Used output format : Internal WAV RoutinesSample format : 44.100 Hz; 16 Bit; Stereo
TOC of the extracted CD
Track | Start | Length | Start sector | End sector --------------------------------------------------------- 1 | 0:00.00 | 4:58.50 | 0 | 22399 2 | 4:58.50 | 4:24.27 | 22400 | 42226 3 | 9:23.02 | 5:16.55 | 42227 | 65981 4 | 14:39.57 | 4:38.35 | 65982 | 86866 5 | 19:18.17 | 5:12.40 | 86867 | 110306 6 | 24:30.57 | 5:30.58 | 110307 | 135114 7 | 30:01.40 | 5:27.69 | 135115 | 159708 8 | 35:29.34 | 4:22.68 | 159709 | 179426 9 | 39:52.27 | 4:47.68 | 179427 | 201019 10 | 44:40.20 | 4:39.27 | 201020 | 221971 11 | 49:19.47 | 4:38.60 | 221972 | 242881 12 | 53:58.32 | 5:03.68 | 242882 | 265674 13 | 59:02.25 | 5:28.72 | 265675 | 290346
Range status and errors
Selected range
Filename E:\TORRENT\Mylene Farmer\Singles\1999 - Innamoramento (Edition Limitee)\Mylene Farmer - Innamoramento (Edition Limitee).wav
Peak level 98.8 % Range quality 100.0 % Test CRC EDE95690 Copy CRC EDE95690 Copy OK
No errors occurred
AccurateRip summary
Track 1 accurately ripped (confidence 31) [C2314B4D]Track 2 accurately ripped (confidence 31) [FE2A7C23]Track 3 accurately ripped (confidence 30) [ED519BA3]Track 4 accurately ripped (confidence 31) [2267F254]Track 5 accurately ripped (confidence 30) [F33485F0]Track 6 accurately ripped (confidence 31) [9D0F031D]Track 7 accurately ripped (confidence 30) [86521E72]Track 8 accurately ripped (confidence 30) [5676B24E]Track 9 accurately ripped (confidence 30) [1051ADF6]Track 10 accurately ripped (confidence 31) [B42C097F]Track 11 accurately ripped (confidence 31) [886CD6DF]Track 12 accurately ripped (confidence 30) [C82A73AE]Track 13 accurately ripped (confidence 29) [047BEAEA]
All tracks accurately ripped
End of status report

2000 - Mylenium Tour (Live, 2CD)

Год выпуска: 2000
Производитель: France, Polydor
AccurateRip: 100%
CD1
Продолжительность:
51.54
Треклист:
01. Mylenium (06:06)
02. L'Amour Naissant (05:27)
03. L'Ame-Stram-Gram (06:00)
04. Beyond My Control (05:00)
05. Rever (05:55)
06. Il N'y A Pas D'Ailleurs (04:34)
07. Mylene Is Calling (02:28)
08. Optimistique-Moi (04:23)
09. Medley (06:48)
10. Regrets (05:12)
CD2
Продолжительность:
52.06
Треклист:
01. Desenchantee (06:43)
02. Mefie-Toi (05:40)
03. Dessine-Moi Un Mouton (04:50)
04. California (05:27)
05. Pas Le Temps De Vivre (07:08)
06. Je Te Rends Ton Amour (05:15)
07. Souviens-Toi Du Jour... (05:18)
08. Dernier Sourire (04:53)
09. Innamoramento (06:53)

EAC + AccurateRip LOG

Exact Audio Copy V0.99 prebeta 4 from 23. January 2008
Отчёт EAC об извлечении, выполненном 4. сентября 2008, 6:24
Mylиne Farmer / Mylenium Tour-CD1
Дисковод: MAD DOG MD-16XDVD9A2 Adapter: 3 ID: 0
Режим чтени

_________________
Other forum [Profile] [PM]
Display posts from previous:    
Reply to topic

The time now is: Today 07:52

All times are GMT + 3 Hours



You cannot post new topics in this forum
You cannot reply to topics in this forum
You cannot edit your posts in this forum
You cannot delete your posts in this forum
You cannot vote in polls in this forum
You cannot attach files in this forum
You cannot download files in this forum