Today is a free download without charge Download

Первый мститель: Другая война / Captain America: The Winter Soldier (Энтони Руссо, Джо Руссо)[2014.,фантастика, боевик, приключения] HDTVRip [1080p] [Трейлер]

Reply to topic
 
Author
Message

sashau ®

Gender:

Longevity: 7 years 8 months

Posts: 3497

Торрент-статистика

Post 27-Oct-2013 09:42

[Quote]

Первый мститель: Другая война / Captain America: The Winter Soldier- Год выпуска: 2014
Производство: США / Marvel Entertainment, Marvel Studios
Жанр: фантастика, боевик, приключения
Перевод: Профессиональный (полное дублирование)
Язык: Русский-Дата мировой премьеры: 28 марта 2014
Дата российской премьеры: 4 апреля 2014, «WDSSPR»
Дата выхода DVD/Blu-Ray: 8 июля 2014, «Уолт Дисней Компани СНГ»-Режиссер: Энтони Руссо, Джо Руссо
Продюсер: Кевин Файги, Виктория Алонсо, Луис Д’Эспозито
Актеры: Крис Эванс, Скарлетт Йоханссон, Коби Смолдерс, Сэмюэль Л. Джексон, Хэйли Атуэлл, Себастьян Стэн-Описание фильма:
После событий в «Мстителях», Стив Роджерс пытается ужиться в современном мире, спокойно проживая в Вашингтоне. Но когда организацию Щ. И. Т. атакуют, Стив попадает в паутину интриг, которая ставит под угрозу весь мир. После того, как дело распутывается, Капитан Америка и Черная вдова объединяются с новым союзником, Ястребом. Несмотря на это, герои встречают неожиданного врага — Зимнего солдата.- -Продолжительность: 00:02:30
Качество видео: HDTVRip [1080p]-Видеокодек: MPEG-4 AVC/H.264
Битрейт видео: ~14.1 Mbps
Размер кадра: 1920х1080
Аудио: [Русский]: AАC-LC 2.0; 125.00 kbps; 44.1 KHz; 16-bits |Дубляж|

MediaInfo:

Код:
General
Complete name                            : E:\Captain-America.mp4
Format                                   : MPEG-4
Format profile                           : Base Media / Version 2
Codec ID                                 : mp42
File size                                : 255 MiB
Duration                                 : 2mn 30s
Overall bit rate mode                    : Variable
Overall bit rate                         : 14.2 Mbps
Genre                                    : Action
Encoded date                             : UTC 2013-10-24 18:24:35
Tagged date                              : UTC 2013-10-24 18:59:58
Copyright                                : Long_Boy
Cover                                    : Yes
hdvd                                     : 1
stik                                     : 9
Video
ID                                       : 1
Format                                   : AVC
Format/Info                              : Advanced Video Codec
Format profile                           : [url=mailto:Main@L4.0]Main@L4.0[/url]
Format settings, CABAC                   : Yes
Format settings, ReFrames                : 2 frames
Codec ID                                 : avc1
Codec ID/Info                            : Advanced Video Coding
Duration                                 : 2mn 30s
Bit rate mode                            : Variable
Bit rate                                 : 14.1 Mbps
Maximum bit rate                         : 26.5 Mbps
Width                                    : 1 920 pixels
Height                                   : 1 080 pixels
Display aspect ratio                     : 2.40:1
Original display aspect ratio            : 2.40:1
Frame rate mode                          : Constant
Frame rate                               : 23.976 fps
Color space                              : YUV
Chroma subsampling                       : 4:2:0
Bit depth                                : 8 bits
Scan type                                : Progressive
Bits/(Pixel*Frame)                       : 0.283
Stream size                              : 252 MiB (99%)
Language                                 : English
Encoded date                             : UTC 2013-10-24 18:24:35
Tagged date                              : UTC 2013-10-24 18:40:03
Audio
ID                                       : 2
Format                                   : AAC
Format/Info                              : Advanced Audio Codec
Format profile                           : LC
Codec ID                                 : 40
Duration                                 : 2mn 30s
Bit rate mode                            : Variable
Bit rate                                 : 125 Kbps
Maximum bit rate                         : 139 Kbps
Channel(s)                               : 2 channels
Channel positions                        : Front: L R
Sampling rate                            : 44.1 KHz
Compression mode                         : Lossy
Delay relative to video                  : 65ms
Stream size                              : 2.23 MiB (1%)
Title                                    : und
Encoded date                             : UTC 2013-10-24 18:24:35
Tagged date                              : UTC 2013-10-24 18:40:03
Menu
00:00:00.000                             : Start
Скриншоты:-          -
Other forum [Profile] [PM]
Similar theme
Forum Topic Author Torrent Replies Last Post
./templates/default/images/folder_dl.gif Обучающее видео Медитация. Первый шаг. / Медитация. Первый шаг. Аудио-курс упражнений для тренировки ума. [2011, Саморазвитие, RUS] (ММ) Omen
1 | 0

0 | 2343

4

2016-11-06 01:00
Omen Latest
./templates/default/images/folder_dl.gif Фантастика, фэнтези, ужасы, мистика Артём Каменистый | Первый робинзон Экса (2019) [FB2] }{@R0N
1 | 0

0 | 342

0

2019-06-02 20:07
}{@R0N Latest
./templates/default/images/folder_dl.gif Зарубежные сериалы Шерлок / Sherlock (2010-2017) BDRip (сезон 1-4, серии 1-13 из 13) Первый канал Clavik
1 | 0

0 | 112

0

2019-08-08 12:45
Clavik Latest
Display posts from previous:    
Reply to topic

The time now is: Today 18:01

All times are GMT + 3 Hours



You cannot post new topics in this forum
You cannot reply to topics in this forum
You cannot edit your posts in this forum
You cannot delete your posts in this forum
You cannot vote in polls in this forum
You cannot attach files in this forum
You cannot download files in this forum