Today is a free download without charge Download

(Brutal Death Metal) Surgical Dissection - The Inborn Malignance - 1999, FLAC (image+.cue), lossless

Reply to topic
 
Author
Message

Omen ®

Longevity: 6 years 9 months

Posts: 181090

Торрент-статистика

Post 22-Oct-2013 21:49

[Quote]

Surgical Dissection / The Inborn Malignance
Жанр: Brutal Death Metal
Страна-производитель диска: Slovakia
Год издания: 1999
Издатель (лейбл): Erebos Production
Номер по каталогу: EP 012
Страна: Slovakia
Аудиокодек: FLAC (*.flac)
Тип рипа: image+.cue
Битрейт аудио: lossless
Продолжительность: 25.56
Источник (релизер): web(GRINDOME)
Наличие сканов в содержимом раздачи: да
Треклист:
1. Companies of Murderers
2. Narcotic
3. To Memory of Torture
4. Lights from the Other Side
5. Angel of Darkness
6. Bestial of Pleasure
7. Weed Out the Parasites
8. World Is Bizarre

Лог создания рипа

Exact Audio Copy V0.99 prebeta 4 from 23. January 2008
Отчёт EAC об извлечении, выполненном 22. апреля 2009, 19:12
Surgical Dissection / The Inborn Malignance
Дисковод: _NEC DVD_RW ND-4571A Adapter: 1 ID: 0
Режим чтения : ДостоверностьИспользование точного потока : ДаОтключение кэша аудио : ДаИспользование указателей C2 : Нет
Коррекция смещения при чтении : 48Способность читать области Lead-in и Lead-out : НетЗаполнение пропущенных сэмплов тишиной : ДаУдаление блоков с тишиной в начале и конце : НетПри вычислениях CRC использовались нулевые сэмплы : ДаИнтерфейс : Установленный внешний ASPI-интерфейс
Выходной формат : Пользовательский кодировщикВыбранный битрейт : 1024 kBit/sКачество : ВысокийДобавление ID3-тэга : ДаУтилита сжатия : C:\Program Files\Exact Audio Copy\Flac\flac.exeДополнительные параметры : -8 -V -T "ARTIST=%a" -T "TITLE=%t" -T "ALBUM=%g" -T "DATE=%y" -T "TRACKNUMBER=%n" -T "GENRE=%m" -T "COMMENT=EAC FLAC -8" %s
TOC извлечённого CD
Трек | Старт | Длительность | Начальный сектор | Конечный сектор --------------------------------------------------------------------- 1 | 0:00.00 | 3:50.17 | 0 | 17266 2 | 3:50.17 | 3:35.57 | 17267 | 33448 3 | 7:25.74 | 3:13.17 | 33449 | 47940 4 | 10:39.16 | 3:29.61 | 47941 | 63676 5 | 14:09.02 | 2:41.37 | 63677 | 75788 6 | 16:50.39 | 3:03.37 | 75789 | 89550 7 | 19:54.01 | 3:32.19 | 89551 | 105469 8 | 23:26.20 | 3:01.29 | 105470 | 119073
Характеристики диапазона извлечения и сообщения об ошибках
Выбранный диапазон
Имя файла D:\GRINDOME\Surgical Dissection - 1999 - The Inborn Malignance\Surgical Dissection - The Inborn Malignance.wav
Пиковый уровень 100.0 % Качество диапазона 100.0 % CRC копии C38042DD Копирование... OK
Ошибок не произошло
AccurateRip: сводка
Трек 1 нет в базе данныхТрек 2 нет в базе данныхТрек 3 нет в базе данныхТрек 4 нет в базе данныхТрек 5 нет в базе данныхТрек 6 нет в базе данныхТрек 7 нет в базе данныхТрек 8 нет в базе данных
Ни одного трека нет в базе AccurateRip
Конец отчёта
Other forum [Profile] [PM]

zanzir

Longevity: 5 years 10 months

Posts: 1

Торрент-статистика

Post 30-Jul-2019 16:56 (after 5 years 9 months)

[Quote]

Please seed this one
Other forum [Profile] [PM]
Similar theme
Forum Topic Author Torrent Replies Last Post
./templates/default/images/folder_dl.gif Metal (Brutal Death Metal) [CD] Relics of Humanity - Guided by the Soulless Call - 2012, FLAC (image+.cue), lossless Omen
1 | 0

1 | 701

5

2014-05-27 10:52
cyrus-67 Latest
Display posts from previous:    
Reply to topic

The time now is: Today 14:47

All times are GMT + 3 Hours



You cannot post new topics in this forum
You cannot reply to topics in this forum
You cannot edit your posts in this forum
You cannot delete your posts in this forum
You cannot vote in polls in this forum
You cannot attach files in this forum
You cannot download files in this forum