Сегодня идет свободное скачивание без начисления Download

(Drum & Bass, Dubstep, Electronic) I Blame Coco - In Spirit Golden (Remixes) - 2010, Remix, FLAC (tracks+cue), lossless

Ответить на тему
 
Автор
Сообщение

Paullo ®

Пол:

Стаж: 8 лет 5 месяцев

Сообщений: 394

Откуда: с корабля

Торрент-статистика

Пост 18-Янв-2011 17:30

[Цитировать]

I Blåme Coco - In Spirit Golden (Remixes) Жанр: Drum & Bass, Dubstep, Electronic
Год выпуска альбома: 2010
Аудиокодек: FLAC
Битрейт аудио: lossless
Тип рипа: tracks+cue
Лейбл издания: Island Records
Тип издания: Remix
Полный скан буклета: Нет
Продолжительность: 00:14:05


01. I Blame Coco - In Spirit Golden (RackNRuin Remix) (4:09)
02. I Blame Coco - In Spirit Golden (DC Breaks Remix) (5:16)
03. I Blame Coco - In Spirit Golden (Arthur Baker Remix) (4:39)

LOG

Exact Audio Copy V1.0 beta 1 from 15. November 2010
EAC extraction logfile from 14. December 2010, 18:23
I Blame Coco / In Spirit Golden
Used drive : HL-DT-STDVDRAM GSA-H10N Adapter: 0 ID: 0
Read mode : Secure
Utilize accurate stream : Yes
Defeat audio cache : Yes
Make use of C2 pointers : No
Read offset correction : 667
Overread into Lead-In and Lead-Out : No
Fill up missing offset samples with silence : Yes
Delete leading and trailing silent blocks : No
Null samples used in CRC calculations : Yes
Used interface : Native Win32 interface for Win NT & 2000
Gap handling : Appended to previous track
Used output format : User Defined Encoder
Selected bitrate : 320 kBit/s
Quality : High
Add ID3 tag : No
Command line compressor : C:\Program Files (x86)\Exact Audio Copy\Flac\flac.exe
Additional command line options : -V -8 -T "artist=%a" -T "title=%t" -T "album=%g" -T "date=%y" -T "tracknumber=%n" -T "genre=%m" %s
TOC of the extracted CD
Track | Start | Length | Start sector | End sector
---------------------------------------------------------
1 | 0:00.00 | 4:09.50 | 0 | 18724
2 | 4:09.50 | 5:16.17 | 18725 | 42441
3 | 9:25.67 | 4:39.69 | 42442 | 63435
Track 1
Filename E:\EAC Rips\I Blame Coco - 2010 - In Spirit Golden [FLAC]\01 - In Spirit Golden (RackNRuin Remix).wav
Pre-gap length 0:00:02.00
Peak level 100.0 %
Extraction speed 4.4 X
Track quality 100.0 %
Test CRC 83E7688A
Copy CRC 83E7688A
Track not present in AccurateRip database
Copy OK
Track 2
Filename E:\EAC Rips\I Blame Coco - 2010 - In Spirit Golden [FLAC]\02 - In Spirit Golden (DC Breaks Remix).wav
Peak level 98.0 %
Extraction speed 4.9 X
Track quality 100.0 %
Test CRC 75C682F9
Copy CRC 75C682F9
Track not present in AccurateRip database
Copy OK
Track 3
Filename E:\EAC Rips\I Blame Coco - 2010 - In Spirit Golden [FLAC]\03 - In Spirit Golden (Arthur Baker Remix).wav
Peak level 98.8 %
Extraction speed 4.3 X
Track quality 99.9 %
Test CRC 19474CE5
Copy CRC 19474CE5
Track not present in AccurateRip database
Copy OK
None of the tracks are present in the AccurateRip database
No errors occurred
End of status report
==== Log checksum D778F865747191B300BDA7E3A8B417E90F917AA336A48E07EBEE3D5277F7E294 ====

Non-compilant Cue

REM GENRE Electronic
REM DATE 2010
REM DISCID 1C034D03
REM COMMENT "ExactAudioCopy v1.0b1"
PERFORMER "I Blame Coco"
TITLE "In Spirit Golden"
FILE "I Blame Coco - 2010 - In Spirit Golden [FLAC]\01 - In Spirit Golden (RackNRuin Remix).wav" WAVE
TRACK 01 AUDIO
TITLE "In Spirit Golden (RackNRuin Remix)"
PERFORMER "I Blame Coco"
INDEX 01 00:00:00
FILE "I Blame Coco - 2010 - In Spirit Golden [FLAC]\02 - In Spirit Golden (DC Breaks Remix).wav" WAVE
TRACK 02 AUDIO
TITLE "In Spirit Golden (DC Breaks Remix)"
PERFORMER "I Blame Coco"
INDEX 01 00:00:00
FILE "I Blame Coco - 2010 - In Spirit Golden [FLAC]\03 - In Spirit Golden (Arthur Baker Remix).wav" WAVE
TRACK 03 AUDIO
TITLE "In Spirit Golden (Arthur Baker Remix)"
PERFORMER "I Blame Coco"
INDEX 01 00:00:00

_________________
сами мы не местные...
Вне форума [Профиль] [ЛС]
Показать сообщения:    
Ответить на тему

Текущее время: Сегодня 08:40

Часовой пояс: GMT + 3



Вы не можете начинать темы
Вы не можете отвечать на сообщения
Вы не можете редактировать свои сообщения
Вы не можете удалять свои сообщения
Вы не можете голосовать в опросах
Вы не можете прикреплять файлы к сообщениям
Вы не можете скачивать файлы