Today is a free download without charge Download

(Orchestral) Александр Скрябин - Симфония №2, Поэма экстаза - 1991, APE (image + .cue), lossless

Reply to topic
 
Author
Message

Зуи ®

Gender:

Longevity: 7 years 8 months

Posts: 10

Торрент-статистика

Post 06-Jan-2012 13:15

[Quote]

Александр Скрябин - Симфония №2, Поэма экстаза
Страна: Россия
Жанр: Orchestral
Год выпуска: 1991
Формат: APE (image + .cue)
Битрейт аудио: lossless
Продолжительность: 01:09:51
Трэклист:
Симфония №2, до минор, соч. 29
1. I. Andante - II. Allegro
2. III. Andante
3. IV. Tempestoso - V. Maestoso
4. Поэма экстаза, соч. 54
Исполнитель:
* Государственный академический симфонический оркестр СССР
* Дирижер Евгений Светланов
* Соло трубы - Лев Володин (4)
* Записи 1963 (1-3), 1966 (4) годов

Отчет EAC

Exact Audio Copy V0.99 prebeta 4 from 23. January 2008
Отчёт EAC об извлечении, выполненном 21. февраля 2009, 14:46
A. Scriabin / Symphony No. 2. Poem of Esctasy
Дисковод: TOSHIBA DVD-ROM SD-R5002 Adapter: 1 ID: 0
Режим чтения : Достоверность
Использование точного потока : Да
Отключение кэша аудио : Да
Использование указателей C2 : Нет
Коррекция смещения при чтении : 116
Способность читать области Lead-in и Lead-out : Нет
Заполнение пропущенных сэмплов тишиной : Да
Удаление блоков с тишиной в начале и конце : Нет
При вычислениях CRC использовались нулевые сэмплы : Да
Интерфейс : Встроенный Win32-интерфейс для Win NT/2000
Выходной формат : Внутренние WAV-операции
Формат сэмплов : 44.100 Гц; 16 бит; стерео
TOC извлечённого CD
Трек | Старт | Длительность | Начальный сектор | Конечный сектор
---------------------------------------------------------------------
1 | 0:00.00 | 18:20.37 | 0 | 82536
2 | 18:20.37 | 15:27.00 | 82537 | 152061
3 | 33:47.37 | 14:09.00 | 152062 | 215736
4 | 47:56.37 | 22:06.13 | 215737 | 315199
Характеристики диапазона извлечения и сообщения об ошибках
Выбранный диапазон
Имя файла E:\Scriabin_Symphony_2_Poem_of_Ecstasy_Svetlanov.wav
Пиковый уровень 73.4 %
Качество диапазона 99.9 %
CRC копии F45891B7
Копирование... OK
Ошибок не произошло
AccurateRip: сводка
Трек 1 нет в базе данных
Трек 2 нет в базе данных
Трек 3 нет в базе данных
Трек 4 нет в базе данных
Ни одного трека нет в базе AccurateRip
Конец отчёта

CUE

REM GENRE Classical
REM DATE 1963
REM DISCID 2C106A04
REM COMMENT "ExactAudioCopy v0.99pb4"
PERFORMER "A. Scriabin"
TITLE "Symphony No. 2. Poem of Esctasy"
FILE "Scriabin_Symphony_2_Poem_of_Ecstasy_Svetlanov.wav" WAVE
TRACK 01 AUDIO
TITLE "Andante. Allegro"
PERFORMER "A. Scriabin"
INDEX 01 00:00:00
INDEX 02 08:53:00
TRACK 02 AUDIO
TITLE "Andante"
PERFORMER "A. Scriabin"
INDEX 00 18:17:62
INDEX 01 18:20:37
TRACK 03 AUDIO
TITLE "Tempestoso. Maestoso"
PERFORMER "A. Scriabin"
INDEX 00 33:46:37
INDEX 01 33:47:37
INDEX 02 43:55:62
TRACK 04 AUDIO
TITLE "Poem of ecstasy, Op. 54"
PERFORMER "A. Scriabin"
INDEX 00 47:53:37
INDEX 01 47:56:37


Last edited by Зуи on 2012-01-09 01:46; edited 1 time in total
Other forum [Profile] [PM]
Display posts from previous:    
Reply to topic

The time now is: Today 03:40

All times are GMT + 3 Hours



You cannot post new topics in this forum
You cannot reply to topics in this forum
You cannot edit your posts in this forum
You cannot delete your posts in this forum
You cannot vote in polls in this forum
You cannot attach files in this forum
You cannot download files in this forum