Today is a free download without charge Download

Некромант / Nekrotronic ( Кия Роуч-Тернер) [2018, ужасы, фантастика, комедия, BDRip 1080p] [DUB] [iTunes]

Reply to topic
 
Author
Message

Орлов Владимир ®

Gender:

Longevity: 1 month 4 days

Posts: 106

Location: Россия , Долгопрудный, Моск.обл

Торрент-статистика

Post 13-Sep-2019 14:03

[Quote]

--Некромант / Nekrotronic ( Кия Роуч-Тернер) [2018, ужасы, фантастика, комедия, BDRip 1080p] [DUB] [iTunes]-- Информация о фильме
Название: Некромант
Оригинальное название: Nekrotronic
Год выхода: 2018
Жанр: Ужасы, фантастика, комедия
Режиссер: Кия Роуч-Тернер--В ролях: Бен О'Тул, Моника Беллуччи, Боб Савеа, Дэвид Бимиш, Чармэйн Бингва, Уилльям Чун, Майкл Дункан, Кэролайн Форд, Аллира Гибсон, Роберт Грин--О фильме: Однажды, зависнув в сети, обычный парень осознает, что он - член таинственной организации некромантов, один из охотников на демонов, овладевающих душами людей через смартфоны.-- --Страна: Австралия
Студия: Guerilla Films, Hopscotch Features
Продолжительность: 01:36:43
Перевод: Дублированный | iTunes--Качество: BDRip 1080p
Видео: MPEG-4 AVC, 1920x804, 11.2 Mbit/s, 23.976 fps
Аудио #01: 48 kHz, AC3, 5.1, 384 Kbps | iTunes | RUS |
Аудио #02: 48 kHz, AC3, 5.1, 640 Kbps | Оригинал | ENG |
Субтитры: Английские--

Скриншоты

         

Тех.данные видеофайла

General
Unique ID: 183116840087396363497479444882618528656 (0x89C30543B88B5676A2FCA0D127DF3390)
Complete name: D:\Video111\Nekrotronic.2018.BDRip.1080p.seleZen.mkv
Format: Matroska
Format version: Version 4
File size: 8.25 GiB
Duration: 1 h 36 min
Overall bit rate: 12.2 Mb/s
Movie name: Nekrotronic 2018 from селезень
Encoded date: UTC 2019-09-13 09:59:56
Writing application: mkvmerge v22.0.0 ('At The End Of The World') 64-bit
Writing library: libebml v1.3.5 + libmatroska v1.4.8
Video
ID: 1
Format: AVC
Format/Info: Advanced Video Codec
Format profile: High@L4.1
Format settings: CABAC / 5 Ref Frames
Format settings, CABAC: Yes
Format settings, Reference: 5 frames
Codec ID: V_MPEG4/ISO/AVC
Duration: 1 h 36 min
Bit rate: 11.2 Mb/s
Width: 1 920 pixels
Height: 804 pixels
Display aspect ratio: 2.40:1
Frame rate mode: Constant
Frame rate: 23.976 (24000/1001) FPS
Color space: YUV
Chroma subsampling: 4:2:0
Bit depth: 8 bits
Scan type: Progressive
Bits/(Pixel*Frame): 0.303
Stream size: 7.56 GiB (92%)
Title: Encoded by seleZen
Writing library: x264 core 148 r2705kMod 3f5ed56
Encoding settings: cabac=1 / ref=5 / deblock=1:-2:-2 / analyse=0x3:0x113 / me=umh / subme=11 / psy=1 / fade_compensate=0.00 / psy_rd=1.00:0.00 / mixed_ref=1 / me_range=32 / chroma_me=1 / trellis=2 / 8x8dct=1 / cqm=0 / deadzone=21,11 / fast_pskip=0 / chroma_qp_offset=-2 / threads=24 / lookahead_threads=6 / sliced_threads=0 / nr=0 / decimate=0 / interlaced=0 / bluray_compat=0 / constrained_intra=0 / fgo=0 / bframes=10 / b_pyramid=2 / b_adapt=2 / b_bias=0 / direct=3 / weightb=1 / open_gop=0 / weightp=2 / keyint=240 / keyint_min=23 / scenecut=40 / intra_refresh=0 / rc_lookahead=50 / rc=2pass / mbtree=0 / bitrate=11200 / ratetol=1.0 / qcomp=0.60 / qpmin=0 / qpmax=51 / qpstep=4 / cplxblur=20.0 / qblur=0.5 / vbv_maxrate=50000 / vbv_bufsize=62500 / nal_hrd=none / filler=0 / ip_ratio=1.40 / pb_ratio=1.30 / aq=3:0.80
Language: English
Default: Yes
Forced: No
Audio #1
ID: 2
Format: AC-3
Format/Info: Audio Coding 3
Commercial name: Dolby Digital
Codec ID: A_AC3
Duration: 1 h 36 min
Bit rate mode: Constant
Bit rate: 384 kb/s
Channel(s): 6 channels
Channel layout: L R C LFE Ls Rs
Sampling rate: 48.0 kHz
Frame rate: 31.250 FPS (1536 SPF)
Bit depth: 16 bits
Compression mode: Lossy
Stream size: 266 MiB (3%)
Title: iTunes
Language: Russian
Service kind: Complete Main
Default: Yes
Forced: Yes
Audio #2
ID: 3
Format: AC-3
Format/Info: Audio Coding 3
Commercial name: Dolby Digital
Codec ID: A_AC3
Duration: 1 h 36 min
Bit rate mode: Constant
Bit rate: 640 kb/s
Channel(s): 6 channels
Channel layout: L R C LFE Ls Rs
Sampling rate: 48.0 kHz
Frame rate: 31.250 FPS (1536 SPF)
Bit depth: 16 bits
Compression mode: Lossy
Stream size: 443 MiB (5%)
Title: Original
Language: English
Service kind: Complete Main
Default: No
Forced: No
Text #1
ID: 4
Format: UTF-8
Codec ID: S_TEXT/UTF8
Codec ID/Info: UTF-8 Plain Text
Duration: 1 h 30 min
Bit rate: 39 b/s
Count of elements: 997
Stream size: 26.6 KiB (0%)
Title: Full
Language: English
Default: No
Forced: No
Text #2
ID: 5
Format: UTF-8
Codec ID: S_TEXT/UTF8
Codec ID/Info: UTF-8 Plain Text
Duration: 1 h 31 min
Bit rate: 49 b/s
Count of elements: 1330
Stream size: 32.8 KiB (0%)
Title: SDH
Language: English
Default: No
Forced: No
Menu
00:00:00.000: en:00:00:00.000
00:05:02.427: en:00:05:02.427
00:09:52.675: en:00:09:52.675
00:17:47.692: en:00:17:47.692
00:25:40.873: en:00:25:40.873
00:33:46.399: en:00:33:46.399
00:38:33.186: en:00:38:33.186
00:42:50.526: en:00:42:50.526
00:47:39.732: en:00:47:39.732
00:55:36.750: en:00:55:36.750
00:59:54.466: en:00:59:54.466
01:03:45.071: en:01:03:45.071
01:11:30.077: en:01:11:30.077
01:17:15.756: en:01:17:15.756
01:22:25.065: en:01:22:25.065
01:31:23.603: en:01:31:23.603

_________________

Other forum [Profile] [PM]
Display posts from previous:    
Reply to topic

The time now is: Today 14:46

All times are GMT + 3 Hours



You cannot post new topics in this forum
You cannot reply to topics in this forum
You cannot edit your posts in this forum
You cannot delete your posts in this forum
You cannot vote in polls in this forum
You cannot attach files in this forum
You cannot download files in this forum