Today is a free download without charge Download

Шерлок / Sherlock (2010-2017) BDRip (сезон 1-4, серии 1-13 из 13) Первый канал

Reply to topic
 
Author
Message

Clavik ®

Gender:

Longevity: 5 years 11 months

Posts: 1948

Location: Украина

Торрент-статистика

Post 08-Aug-2019 12:45

[Quote]

Шерлок / Sherlock (2010-2017) BDRip (сезон 1-4, серии 1-13 из 13) - Производство: Великобритания, США / Hartswood Films, BBC Wales, Masterpiece Theatre
Жанр: триллер, драма, криминал, детектив
Режиссер: Пол МакГиган, Ник Харран, Коки Гидройч
Актеры: Бенедикт Камбербэтч, Мартин Фриман, Уна Стаббс, Эндрю Скотт, Лара Пулвер, Лу Брили, Руперт Грейвз, Ларс Миккельсен, Марк Гатисс, Винетт Робинсон, Джонатан Арис, Зои Телфорд, Дэвид Неллист, Филип Дэвис, Шиван Хьюлетт, Уильям Скотт-Мэссон
Описание:
События разворачиваются в наши дни. Он прошел Афганистан, остался инвалидом. По возвращении в родные края встречается с загадочным, но своеобразным гениальным человеком. Тот в поиске соседа по квартире. Лондон, 2010 год. Происходят необъяснимые убийства. Скотланд-Ярд без понятия, за что хвататься. Существует лишь один человек, который в силах разрешить проблемы и найти ответы на сложные вопросы.

Возраст: 12+ (зрителям, достигшим 12 лет)
Продолжительность: ~ 01:28:00
Качество видео: BDRip
Перевод: Дублированный (Первый канал)
Субтитры: Русские (sms'ки, надписи), английские (внешние)
Видео: Xvid, 720x400, ~1810 kbps
Аудио: AC3, 2 ch, 192 kbps, Русский (DUB)
Аудио: AC3, 6 ch, 448 kbps, Английский

MediaInfo:

Общее
Полное имя : D:\FILMS\Sherlock\Season 1\Sherlock.s01e01.avi
Формат : AVI
Формат/Информация : Audio Video Interleave
Размер файла : 1,46 Гбайт
Продолжительность : 1 ч. 28 м.
Общий поток : 2377 Кбит/сек
Название фильма : Sherlock.s01e01.Skreech
Программа кодирования : VirtualDubModRus 1.5.10.1 (build 2439/release)
Видео
Идентификатор : 0
Формат : MPEG-4 Visual
Профиль формата : Advanced Simple@L5
Настройки формата : BVOP3
Параметр BVOP формата : 3
Параметр QPel формата : Нет
Параметр GMC формата : Без точки перехода
Параметр матрицы формата : Default (H.263)
Идентификатор кодека : XVID
Идентификатор кодека/Подсказка : XviD
Продолжительность : 1 ч. 28 м.
Битрейт : 1723 Кбит/сек
Ширина : 720 пикселей
Высота : 400 пикселей
Соотношение сторон : 16:9
Частота кадров : 25,000 кадров/сек
Цветовое пространство : YUV
Субдискретизация насыщенности : 4:2:0
Битовая глубина : 8 бит
Тип развёртки : Прогрессивная
Метод сжатия : С потерями
Бит/(Пиксели*Кадры) : 0.239
Размер потока : 1,06 Гбайт (72%)
Библиотека кодирования : XviD 1.2.0.dev47 (UTC 2006-11-01)
Аудио #1
Идентификатор : 1
Формат : AC-3
Формат/Информация : Audio Coding 3
Коммерческое название : Dolby Digital
Идентификатор кодека : 2000
Продолжительность : 1 ч. 28 м.
Вид битрейта : Постоянный
Битрейт : 192 Кбит/сек
Каналы : 2 канала
ChannelLayout : L R
Частота : 48,0 КГц
Частота кадров : 31,250 кадров/сек (1536 SPF)
Битовая глубина : 16 бит
Метод сжатия : С потерями
Размер потока : 121 Мбайт (8%)
Выравнивание : Разделение по промежуткам
Продолжительность промежутка : 40 мс. (1,00 видеокадр)
Время предзагрузки промежутка : 500 мс.
ServiceKind/String : Complete Main
Аудио #2
Идентификатор : 2
Формат : AC-3
Формат/Информация : Audio Coding 3
Коммерческое название : Dolby Digital
Идентификатор кодека : 2000
Продолжительность : 1 ч. 28 м.
Вид битрейта : Постоянный
Битрейт : 448 Кбит/сек
Каналы : 6 каналов
ChannelLayout : L R C LFE Ls Rs
Частота : 48,0 КГц
Частота кадров : 31,250 кадров/сек (1536 SPF)
Битовая глубина : 16 бит
Метод сжатия : С потерями
Размер потока : 282 Мбайт (19%)
Выравнивание : Разделение по промежуткам
Продолжительность промежутка : 40 мс. (1,00 видеокадр)
Время предзагрузки промежутка : 500 мс.
ServiceKind/String : Complete Main

Дополнительная информация:

Список серий:
1 Сезон:
01. Этюд в розовых тонах / A Study in Pink
02. Слепой банкир / The Blind Banker
03. Большая игра / The Great Game
2 Сезон:
01. Скандал в Высшем свете / A Scandal in Belgravia
02. Собаки Баскервиля / The Hounds of Baskerville
03. Рейхенбахский Водопад / The Reichenbach Fall
3 Сезон:
01. Пустой гроб / The Empty Hearse
02. Знак трех / The Sign of Three
03. Последняя клятва / His Last Vow
4 Сезон:
00. Безобразная невеста / The Abominable Bride
01. Шесть Тэтчер / The Six Thatchers
02. Ложный детектив / The Lying Detective
03. Финальная проблема / The Final Problem
Скриншоты:
       

_________________


In forum [Profile] [PM]
Display posts from previous:    
Reply to topic

The time now is: Today 16:58

All times are GMT + 3 Hours



You cannot post new topics in this forum
You cannot reply to topics in this forum
You cannot edit your posts in this forum
You cannot delete your posts in this forum
You cannot vote in polls in this forum
You cannot attach files in this forum
You cannot download files in this forum