Today is a free download without charge Download

Animal Planet: Жуткие, настоящие и странные / Weird, True & Freaky (2018) HDTVRip (Сезон 4, серии 1-10 из 10)

Reply to topic
 
Author
Message

RazBoyNik ®

Gender:

Longevity: 5 years 10 months

Posts: 366

Торрент-статистика

Post 12-Jul-2019 14:58

[Quote]

Жуткие, настоящие и странные / Weird, True & Freaky (2018) HDTVRip (Сезон 4, серии 1-10 из 10) - Год выпуска: 2018
Страна: США, Animal Planet
Жанр: Документальный, природа, фауна
Описание:
Столкновения с природой, которые обернулись дурной стороной. Вас ждут десять самых невероятных встреч с животными, заснятые на видео.
Продолжительность: серии x ~ 00:47:00
Качество видео: HDTVRip
Перевод: Одноголосый закадровый, профессиональный
Субтитры: отсутствуют
Видео: XviD, 720х400@720x406, ~1800 Kbps
Аудио: AC3, 2 ch, 128 Kbps

Mediainfo: (тех. данные всех серий идентичны)

Общее
Полное имя : F:\КИНО\Жуткие, настоящие 1400M (2018)\5 Жуткие, настоящие.avi
Формат : AVI
Формат/Информация : Audio Video Interleave
Размер файла : 652 Мбайт
Продолжительность : 46 м. 59 с.
Общий поток : 1939 Кбит/сек
Программа кодирования : Lavf57.71.100
Видео
Идентификатор : 0
Формат : MPEG-4 Visual
Профиль формата : Advanced Simple@L5
Настройки формата : BVOP1
Параметр BVOP формата : 1
Параметр QPel формата : Нет
Параметр GMC формата : Без точки перехода
Параметр матрицы формата : Default (H.263)
Идентификатор кодека : XVID
Идентификатор кодека/Подсказка : XviD
Продолжительность : 46 м. 59 с.
Битрейт : 1800 Кбит/сек
Ширина : 720 пикселей
Высота : 400 пикселей
Соотношение сторон : 16:9
Частота кадров : 25,000 кадров/сек
Цветовое пространство : YUV
Субдискретизация насыщенности : 4:2:0
Битовая глубина : 8 бит
Тип развёртки : Прогрессивная
Метод сжатия : С потерями
Бит/(Пиксели*Кадры) : 0.250
Размер потока : 605 Мбайт (93%)
Библиотека кодирования : XviD 67
Аудио
Идентификатор : 1
Формат : AC-3
Формат/Информация : Audio Coding 3
Коммерческое название : Dolby Digital
Идентификатор кодека : 2000
Продолжительность : 46 м. 59 с.
Вид битрейта : Постоянный
Битрейт : 128 Кбит/сек
Каналы : 2 канала
Channel layout : L R
Частота : 48,0 КГц
Частота кадров : 31,250 кадров/сек (1536 SPF)
Битовая глубина : 16 бит
Метод сжатия : С потерями
Размер потока : 43,0 Мбайт (7%)
Выравнивание : Соединение по промежуткам
Продолжительность промежутка : 32 мс. (0,80 видеокадр)
ServiceKind/String : Complete Main
Скриншоты:
       
Other forum [Profile] [PM]
Display posts from previous:    
Reply to topic

The time now is: Today 17:43

All times are GMT + 3 Hours



You cannot post new topics in this forum
You cannot reply to topics in this forum
You cannot edit your posts in this forum
You cannot delete your posts in this forum
You cannot vote in polls in this forum
You cannot attach files in this forum
You cannot download files in this forum