Today is a free download without charge Download

Animal Planet. Амба, русский тигр / Amba the Russian Tiger (2008) HDTV [H.264/1080p-LQ]

Reply to topic
 
Author
Message

RazBoyNik ®

Gender:

Longevity: 5 years 10 months

Posts: 366

Торрент-статистика

Post 11-Jul-2019 13:46

[Quote]

Амба, русский тигр / Amba the Russian Tiger (2008) HDTV [H.264/1080p-LQ] - Год выпуска: 2008
Страна: США, Animal Planet International
Жанр: Документальный, природа, флора, фауна
Режиссер: Сарита Уилкинсон
Описание:
Оператор-анималист Гордон Бьюканан отправляется во Владивосток, а оттуда - в Уссурийский край, чтобы познакомить весь мир с тайнами, которые хранит уссурийская тайга, и встретиться с грозным и царственным хозяином здешних мест, амурским тигром. Гордону в его поисках помогают местные жители, охотники, лесники, биологи. С каждым найденным на снегу отпечатком тигриной лапы кажется, что между деревьями вот-вот мелькнет грациозный черно-рыжий силуэт, но с каждым днем надежда на встречу становится все меньше. Удастся ли Гордону исполнить заветную мечту и встретиться с хозяином уссурийской тайги Амбой, как называют тигра в этих краях?
Продолжительность: 00:44:59
Качество видео: HDTV
Перевод: Одноголосый закадровый, профессиональный
Субтитры: отсутствуют
Видео: AVC/H.264, 1920x1080, ~6591 Kbps
Аудио: AAC, 2 ch, 256 Kbps

Mediainfo:

Общее
Уникальный идентификатор : 163229125298449393532800068609032626990 (0x7ACCC938A972468F9851727485C4A32E)
Полное имя : F:\КИНО\Amba the Russian Tiger.mkv
Формат : Matroska
Версия формата : Version 4
Размер файла : 2,15 Гбайт
Продолжительность : 44 м. 59 с.
Общий поток : 6851 Кбит/сек
Дата кодирования : UTC 2019-07-09 14:42:38
Программа кодирования : mkvmerge v35.0.0 ('All The Love In The World') 64-bit
Библиотека кодирования : libebml v1.3.9 + libmatroska v1.5.2
Видео
Идентификатор : 1
Формат : MPEG-4 Visual
Профиль формата : Simple@L1
Параметр BVOP формата : Нет
Параметр QPel формата : Нет
Параметр GMC формата : Без точки перехода
Параметр матрицы формата : Default (H.263)
Идентификатор кодека : V_MS/VFW/FOURCC / DIVX
Идентификатор кодека/Информация : Project Mayo
Идентификатор кодека/Подсказка : DivX 4
Продолжительность : 44 м. 59 с.
Битрейт : 6591 Кбит/сек
Ширина : 1920 пикселей
Высота : 1080 пикселей
Соотношение сторон : 16:9
Режим частоты кадров : Постоянный
Частота кадров : 25,000 кадров/сек
Цветовое пространство : YUV
Субдискретизация насыщенности : 4:2:0
Битовая глубина : 8 бит
Тип развёртки : Прогрессивная
Метод сжатия : С потерями
Бит/(Пиксели*Кадры) : 0.127
Размер потока : 2,07 Гбайт (96%)
Библиотека кодирования : Lavc56.26.100
Default : Да
Forced : Нет
Аудио
Идентификатор : 2
Формат : AAC LC
Формат/Информация : Advanced Audio Codec Low Complexity
Идентификатор кодека : A_AAC-2
Продолжительность : 44 м. 59 с.
Битрейт : 256 Кбит/сек
Каналы : 2 канала
ChannelLayout : L R
Частота : 48,0 КГц
Частота кадров : 46,875 кадров/сек (1024 SPF)
Метод сжатия : С потерями
Задержка видео : -21 мс.
Размер потока : 82,5 Мбайт (4%)
Язык : Russian
Default : Да
Forced : Нет
Скриншоты:
       
Other forum [Profile] [PM]
Display posts from previous:    
Reply to topic

The time now is: Today 19:26

All times are GMT + 3 Hours



You cannot post new topics in this forum
You cannot reply to topics in this forum
You cannot edit your posts in this forum
You cannot delete your posts in this forum
You cannot vote in polls in this forum
You cannot attach files in this forum
You cannot download files in this forum