Today is a free download without charge Download

Udemy | Изучите HTML и CSS за несколько часов (2018) PCRec [H.264/720p-LQ]

Reply to topic
 
Author
Message

}{@R0N ®

Longevity: 3 years 7 months

Posts: 7483

Торрент-статистика

Post 14-Jan-2019 20:27

[Quote]

Udemy | Изучите HTML и CSS за несколько часов - Автор (режиссер): Сергей Никонов
Производство: Udemy
Жанр: HTML, CSS
Описание:
С помощью этого видеокурса вы научитесь верстать адаптивные HTML страницы. Вы самостоятельно создадите портал КиноМонстр, работающий как на компьютерах, так и в мобильных устройствах.
Продолжительность: 04:01:21
Качество видео: PCRec
Видео: AVC/H.264, 1280x720, ~682-1829 Kbps
Аудио: AAC, 2 ch, 127-128 Kbps

Mediainfo:

Общее
Полное имя : .\04 Главная страница. Создание верстки портала Kinomonster\015 Создание нижнего блока сайта - footer - часть 1.mp4
Формат : MPEG-4
Профиль формата : Base Media
Идентификатор кодека : isom (isom/iso2/avc1/mp41)
Размер файла : 38,7 Мбайт
Продолжительность : 4 м. 14 с.
Общий поток : 1275 Кбит/сек
Программа кодирования : Lavf57.71.100
Видео
Идентификатор : 1
Формат : AVC
Формат/Информация : Advanced Video Codec
Профиль формата : [url=mailto:Main@L3.1]Main@L3.1[/url]
Настройки формата : CABAC / 4 Ref Frames
Параметр CABAC формата : Да
Параметр RefFrames формата : 4 кадра
Идентификатор кодека : avc1
Идентификатор кодека/Информация : Advanced Video Coding
Продолжительность : 4 м. 14 с.
Битрейт : 1138 Кбит/сек
Номинальный битрейт : 3000 Кбит/сек
Ширина : 1280 пикселей
Высота : 720 пикселей
Соотношение сторон : 16:9
Режим частоты кадров : Постоянный
Частота кадров : 30,000 кадров/сек
Цветовое пространство : YUV
Субдискретизация насыщенности : 4:2:0
Битовая глубина : 8 бит
Тип развёртки : Прогрессивная
Бит/(Пиксели*Кадры) : 0.041
Размер потока : 34,5 Мбайт (89%)
Библиотека кодирования : x264 core 148
Настройки программы : cabac=1 / ref=3 / deblock=1:-1:-1 / analyse=0x1:0x111 / me=umh / subme=6 / psy=1 / psy_rd=1.00:0.15 / mixed_ref=1 / me_range=16 / chroma_me=1 / trellis=1 / 8x8dct=0 / cqm=0 / deadzone=21,11 / fast_pskip=1 / chroma_qp_offset=-3 / threads=3 / lookahead_threads=1 / sliced_threads=0 / nr=0 / decimate=1 / interlaced=0 / bluray_compat=0 / constrained_intra=0 / bframes=3 / b_pyramid=2 / b_adapt=1 / b_bias=0 / direct=1 / weightb=1 / open_gop=0 / weightp=2 / keyint=60 / keyint_min=6 / scenecut=0 / intra_refresh=0 / rc_lookahead=60 / rc=cbr / mbtree=1 / bitrate=3000 / ratetol=1.0 / qcomp=0.60 / qpmin=0 / qpmax=69 / qpstep=4 / vbv_maxrate=3000 / vbv_bufsize=6000 / nal_hrd=none / filler=0 / ip_ratio=1.40 / aq=1:1.00
Codec configuration box : avcC
Аудио
Идентификатор : 2
Формат : AAC LC
Формат/Информация : Advanced Audio Codec Low Complexity
Идентификатор кодека : mp4a-40-2
Продолжительность : 4 м. 14 с.
Вид битрейта : Постоянный
Битрейт : 128 Кбит/сек
Каналы : 2 канала
Channel layout : L R
Частота : 48,0 КГц
Частота кадров : 46,875 кадров/сек (1024 SPF)
Метод сжатия : С потерями
Размер потока : 3,89 Мбайт (10%)
Язык : English
Default : Да
AlternateGroup/String : 1

Дополнительная информация:

В раздаче имеются архивы! В них содержится дополнительные материалы.
Скриншоты:
       
Other forum [Profile] [PM]
Display posts from previous:    
Reply to topic

The time now is: Today 02:14

All times are GMT + 3 Hours



You cannot post new topics in this forum
You cannot reply to topics in this forum
You cannot edit your posts in this forum
You cannot delete your posts in this forum
You cannot vote in polls in this forum
You cannot attach files in this forum
You cannot download files in this forum