Сегодня идет свободное скачивание без начисления Download

(Heavy Metal) Bullet - Dust To Gold (Japanese Edition) - 2018 [FLAC, image +.cue, lossless]

Ответить на тему
 
Автор
Сообщение

sergej644 ®

Пол:

Стаж: 5 лет 11 месяцев

Сообщений: 588

Торрент-статистика

Пост 12-Авг-2018 19:56

[Цитировать]

-Bullet - Dust To Gold (Japanese Edition)--
Год издания: 2018
Страна: Sweden
Жанр: Heavy Metal
Продолжительность: 00:45:31-Лейбл издания: Spiritual Beast
Страна-выпуска диска: Japan
Номер по каталогу: IUCP-16285-Формат: FLAC
Битрейт аудио: Lossless
Тип рипа: image +.cue
Наличие сканов в содержимом раздачи: да
-

Трэклист


01. Speed And Attack (2:36)
02. Ain't Enough (2:39)
03. Rogue Soldier (3:02)
04. Fuel The Fire (3:27)
05. One More Round (3:08)
06. Highway Love (3:24)
07. Wildfire (4:02)
08. Screams In The Night (2:52)
09. Forever Rise (4:04)
10. The Prophecy (0:29)
11. Hollow Grounds (3:51)
12. Dust To Gold (5:33)
13. Dr. Phibes (3:08)
14. Swords And Tequila (3:15)
-

Лог создания рипа

Код:
Exact Audio Copy V1.0 beta 6 from 9. April 2015
EAC extraction logfile from 23. May 2018, 10:31
Bullet / Dust To Gold
Used drive  : Optiarc DVD RW AD-7243S   Adapter: 2  ID: 0
Read mode               : Secure
Utilize accurate stream : Yes
Defeat audio cache      : Yes
Make use of C2 pointers : No
Read offset correction                      : 48
Overread into Lead-In and Lead-Out          : No
Fill up missing offset samples with silence : Yes
Delete leading and trailing silent blocks   : No
Null samples used in CRC calculations       : Yes
Used interface                              : Installed external ASPI interface
Used output format              : User Defined Encoder
Selected bitrate                : 768 kBit/s
Quality                         : High
Add ID3 tag                     : No
Command line compressor         : D:\Flac\flac-1.3.1-win\win64\flac.exe
Additional command line options :  -V -8 -T "Date=%year%" -T "Genre=%genre%" %source%
TOC of the extracted CD
     Track |   Start  |  Length  | Start sector | End sector
    ---------------------------------------------------------
        1  |  0:00.00 |  2:36.16 |         0    |    11715
        2  |  2:36.16 |  2:39.25 |     11716    |    23665
        3  |  5:15.41 |  3:02.34 |     23666    |    37349
        4  |  8:18.00 |  3:27.20 |     37350    |    52894
        5  | 11:45.20 |  3:07.58 |     52895    |    66977
        6  | 14:53.03 |  3:23.74 |     66978    |    82276
        7  | 18:17.02 |  4:01.67 |     82277    |   100418
        8  | 22:18.69 |  2:51.39 |    100419    |   113282
        9  | 25:10.33 |  4:04.33 |    113283    |   131615
       10  | 29:14.66 |  0:28.39 |    131616    |   133754
       11  | 29:43.30 |  3:50.59 |    133755    |   151063
       12  | 33:34.14 |  5:32.69 |    151064    |   176032
       13  | 39:07.08 |  3:08.01 |    176033    |   190133
       14  | 42:15.09 |  3:15.37 |    190134    |   204795
Range status and errors
Selected range
     Filename D:\Varvaar r\Bullet[2018]Dust To Gold (Japan-IUCP-16285)\Bullet - Dust To Gold.wav
     Peak level 100.0 %
     Extraction speed 3.9 X
     Range quality 100.0 %
     Test CRC 45E899BC
     Copy CRC 45E899BC
     Copy OK
No errors occurred
AccurateRip summary
Track  1  not present in database
Track  2  not present in database
Track  3  not present in database
Track  4  not present in database
Track  5  not present in database
Track  6  not present in database
Track  7  not present in database
Track  8  not present in database
Track  9  not present in database
Track 10  not present in database
Track 11  not present in database
Track 12  not present in database
Track 13  not present in database
Track 14  not present in database
None of the tracks are present in the AccurateRip database
End of status report

Индексная карта (non-compilant .cue)

Код:
REM GENRE "Heavy Metal"
REM DATE 2018
REM DISCID BC0AAA0E
REM COMMENT "ExactAudioCopy v1.0b6"
PERFORMER "Bullet"
TITLE "Dust To Gold "
FILE "Bullet - Dust To Gold.Flac" WAVE
  TRACK 01 AUDIO
    TITLE "Speed And Attack"
    PERFORMER "Bullet"
    INDEX 01 00:00:00
  TRACK 02 AUDIO
    TITLE "Ain't Enough"
    PERFORMER "Bullet"
    INDEX 00 02:35:13
    INDEX 01 02:36:16
  TRACK 03 AUDIO
    TITLE "Rogue Soldier"
    PERFORMER "Bullet"
    INDEX 00 05:14:43
    INDEX 01 05:15:41
  TRACK 04 AUDIO
    TITLE "Fuel The Fire"
    PERFORMER "Bullet"
    INDEX 00 08:17:18
    INDEX 01 08:18:00
  TRACK 05 AUDIO
    TITLE "One More Round"
    PERFORMER "Bullet"
    INDEX 00 11:44:02
    INDEX 01 11:45:20
  TRACK 06 AUDIO
    TITLE "Highway Love"
    PERFORMER "Bullet"
    INDEX 00 14:52:36
    INDEX 01 14:53:03
  TRACK 07 AUDIO
    TITLE "Wildfire"
    PERFORMER "Bullet"
    INDEX 00 18:15:63
    INDEX 01 18:17:02
  TRACK 08 AUDIO
    TITLE "Screams In The Night"
    PERFORMER "Bullet"
    INDEX 00 22:17:50
    INDEX 01 22:18:69
  TRACK 09 AUDIO
    TITLE "Forever Rise"
    PERFORMER "Bullet"
    INDEX 00 25:09:08
    INDEX 01 25:10:33
  TRACK 10 AUDIO
    TITLE "The Prophecy"
    PERFORMER "Bullet"
    INDEX 00 29:14:48
    INDEX 01 29:14:66
  TRACK 11 AUDIO
    TITLE "Hollow Grounds"
    PERFORMER "Bullet"
    INDEX 01 29:43:30
  TRACK 12 AUDIO
    TITLE "Dust To Gold"
    PERFORMER "Bullet"
    INDEX 00 33:32:53
    INDEX 01 33:34:14
  TRACK 13 AUDIO
    TITLE "Dr. Phibes"
    PERFORMER "Bullet"
    INDEX 00 39:06:08
    INDEX 01 39:07:08
  TRACK 14 AUDIO
    TITLE "Swords And Tequila"
    PERFORMER "Bullet"
    INDEX 00 42:12:10
    INDEX 01 42:15:09
-

для ознакомления:

--

_________________
Вне форума [Профиль] [ЛС]
Похожие темы
Форум Тема Автор Торрент Отв. Посл. сообщение
./templates/default/images/folder_dl.gif Metal (Heavy Metal) [CD] Pokolgep - Totalis Metal - 1986/2012, FLAC (image+.cue), lossless Omen
0 | 1

0 | 391

0

2014-12-25 23:00
Omen Последнее
./templates/default/images/folder_dl.gif Metal (Heavy Metal) Sfyrokalymnon - The Sign Of Concrete Creation - 2015, MP3, 320 kbps Omen
0 | 1

0 | 438

0

2015-09-30 18:00
Omen Последнее
./templates/default/images/folder_dl.gif Metal (Heavy Metal) Ram - Svbversvm - 2015, MP3, 320 kbps Omen
1 | 0

0 | 962

8

2015-10-30 00:00
Omen Последнее
./templates/default/images/folder_dl.gif Metal (Heavy Metal) [CD] Santa - Reencarnación (Zafiro, 74321 933382, Spain) - 1984 (2002 Reissue), FLAC (image + .cue), Lossless Omen
1 | 0

0 | 435

3

2016-08-31 01:00
Omen Последнее
Показать сообщения:    
Ответить на тему

Текущее время: Сегодня 02:35

Часовой пояс: GMT + 3



Вы не можете начинать темы
Вы не можете отвечать на сообщения
Вы не можете редактировать свои сообщения
Вы не можете удалять свои сообщения
Вы не можете голосовать в опросах
Вы не можете прикреплять файлы к сообщениям
Вы не можете скачивать файлы