Сегодня идет свободное скачивание без начисления Download

(Heavy Metal) Universe Infinity - Rock Is Alive (Japanese Edition) - 2018 [FLAC, image +.cue, lossless]

Ответить на тему
 
Автор
Сообщение

sergej644 ®

Пол:

Стаж: 5 лет 11 месяцев

Сообщений: 588

Торрент-статистика

Пост 12-Авг-2018 19:53

[Цитировать]

-Universe Infinity - Rock Is Alive (Japanese Edition)--
Год издания: 2018
Страна: Sweden
Жанр: Heavy Metal
Продолжительность: 00:54:33-Лейбл издания: AVALON
Страна-выпуска диска: Japan
Номер по каталогу: MICP-11415-Формат: FLAC
Битрейт аудио: Lossless
Тип рипа: image +.cue
Наличие сканов в содержимом раздачи: да
-

Трэклист


01. Start Give All Your Love (4:35)
02. Catch Of My Life (4:50)
03. Company's Coming (5:21)
04. She Can't Get Enough (4:33)
05. Red Submarines (4:01)
06. Born In Flames (4:19)
07. Rock Is Alive (3:17)
08. We Were Just Dancing (5:34)
09. Lady Luck (5:16)
10. Streets Of Hate (6:17)
11. The Rival (Bonus Track) (6:29)
-

Лог создания рипа

Код:
Exact Audio Copy V1.3 from 2. September 2016
EAC extraction logfile from 14. May 2018, 13:29
Universe Infinity / Rock Is Alive (Japan)
Used drive  : ATAPI   iHAS122   W   Adapter: 2  ID: 0
Read mode               : Secure
Utilize accurate stream : Yes
Defeat audio cache      : Yes
Make use of C2 pointers : No
Read offset correction                      : 48
Overread into Lead-In and Lead-Out          : No
Fill up missing offset samples with silence : Yes
Delete leading and trailing silent blocks   : No
Null samples used in CRC calculations       : Yes
Used interface                              : Installed external ASPI interface
Used output format              : User Defined Encoder
Selected bitrate                : 1024 kBit/s
Quality                         : High
Add ID3 tag                     : No
Command line compressor         : C:\Program Files\FLAC\flac.exe
Additional command line options : -V -8 -T "Date=%year%" -T "Genre=%genre%" %source%
TOC of the extracted CD
     Track |   Start  |  Length  | Start sector | End sector
    ---------------------------------------------------------
        1  |  0:00.00 |  4:35.36 |         0    |    20660
        2  |  4:35.36 |  4:50.13 |     20661    |    42423
        3  |  9:25.49 |  5:20.61 |     42424    |    66484
        4  | 14:46.35 |  4:33.20 |     66485    |    86979
        5  | 19:19.55 |  4:01.32 |     86980    |   105086
        6  | 23:21.12 |  4:18.42 |    105087    |   124478
        7  | 27:39.54 |  3:16.64 |    124479    |   139242
        8  | 30:56.43 |  5:34.11 |    139243    |   164303
        9  | 36:30.54 |  5:16.22 |    164304    |   188025
       10  | 41:47.01 |  6:17.11 |    188026    |   216311
       11  | 48:04.12 |  6:28.68 |    216312    |   245479
Range status and errors
Selected range
     Filename D:\Universe Infinity - Rock Is Alive (Japan).wav
     Peak level 97.7 %
     Extraction speed 3.9 X
     Range quality 100.0 %
     Test CRC B5DDC459
     Copy CRC B5DDC459
     Copy OK
No errors occurred
AccurateRip summary
Track  1  not present in database
Track  2  not present in database
Track  3  not present in database
Track  4  not present in database
Track  5  not present in database
Track  6  not present in database
Track  7  not present in database
Track  8  not present in database
Track  9  not present in database
Track 10  not present in database
Track 11  not present in database
None of the tracks are present in the AccurateRip database
End of status report

Индексная карта (non-compilant .cue)

Код:
REM GENRE "Heavy Metal"
REM DATE 2018
REM DISCID A70CC90B
REM COMMENT "ExactAudioCopy v1.3"
PERFORMER "Universe Infinity"
TITLE "Rock Is Alive (Japan)"
FILE "Universe Infinity - Rock Is Alive (Japan).flac" WAVE
  TRACK 01 AUDIO
    TITLE "Start Give All Your Love"
    PERFORMER "Universe Infinity"
    INDEX 01 00:00:00
  TRACK 02 AUDIO
    TITLE "Catch Of My Life"
    PERFORMER "Universe Infinity"
    INDEX 00 04:33:36
    INDEX 01 04:35:36
  TRACK 03 AUDIO
    TITLE "Company's Coming"
    PERFORMER "Universe Infinity"
    INDEX 00 09:23:49
    INDEX 01 09:25:49
  TRACK 04 AUDIO
    TITLE "She Can't Get Enough"
    PERFORMER "Universe Infinity"
    INDEX 00 14:44:35
    INDEX 01 14:46:35
  TRACK 05 AUDIO
    TITLE "Red Submarines"
    PERFORMER "Universe Infinity"
    INDEX 00 19:17:55
    INDEX 01 19:19:55
  TRACK 06 AUDIO
    TITLE "Born In Flames"
    PERFORMER "Universe Infinity"
    INDEX 00 23:19:12
    INDEX 01 23:21:12
  TRACK 07 AUDIO
    TITLE "Rock Is Alive"
    PERFORMER "Universe Infinity"
    INDEX 00 27:37:54
    INDEX 01 27:39:54
  TRACK 08 AUDIO
    TITLE "We Were Just Dancing"
    PERFORMER "Universe Infinity"
    INDEX 00 30:54:43
    INDEX 01 30:56:43
  TRACK 09 AUDIO
    TITLE "Lady Luck"
    PERFORMER "Universe Infinity"
    INDEX 00 36:28:54
    INDEX 01 36:30:54
  TRACK 10 AUDIO
    TITLE "Streets Of Hate"
    PERFORMER "Universe Infinity"
    INDEX 00 41:45:01
    INDEX 01 41:47:01
  TRACK 11 AUDIO
    TITLE "The Rival (Bonus Track)"
    PERFORMER "Universe Infinity"
    INDEX 00 48:02:12
    INDEX 01 48:04:12
-

для ознакомления:

--

_________________
Вне форума [Профиль] [ЛС]
Похожие темы
Форум Тема Автор Торрент Отв. Посл. сообщение
./templates/default/images/folder_dl.gif Metal (Heavy Metal) [CD] Pokolgep - Totalis Metal - 1986/2012, FLAC (image+.cue), lossless Omen
0 | 1

0 | 391

0

2014-12-25 23:00
Omen Последнее
./templates/default/images/folder_dl.gif Metal (Heavy Metal) Sfyrokalymnon - The Sign Of Concrete Creation - 2015, MP3, 320 kbps Omen
0 | 1

0 | 438

0

2015-09-30 18:00
Omen Последнее
./templates/default/images/folder_dl.gif Metal (Heavy Metal) Ram - Svbversvm - 2015, MP3, 320 kbps Omen
1 | 0

0 | 962

8

2015-10-30 00:00
Omen Последнее
./templates/default/images/folder_dl.gif Metal (Heavy Metal) [CD] Santa - Reencarnación (Zafiro, 74321 933382, Spain) - 1984 (2002 Reissue), FLAC (image + .cue), Lossless Omen
1 | 0

0 | 435

3

2016-08-31 01:00
Omen Последнее
Показать сообщения:    
Ответить на тему

Текущее время: Сегодня 02:35

Часовой пояс: GMT + 3



Вы не можете начинать темы
Вы не можете отвечать на сообщения
Вы не можете редактировать свои сообщения
Вы не можете удалять свои сообщения
Вы не можете голосовать в опросах
Вы не можете прикреплять файлы к сообщениям
Вы не можете скачивать файлы