Today is a free download without charge Download

Электрические сны Филипа К. Дика / Philip K. Dick's Electric Dreams / Сезон: 1 / Серии: 1-6 из 10 (Дэвид Фарр / David Farr) [2017, США, Великобритания, фантастика, WEB-DL 1080p] MVO (Amedia) + Original (Eng) + Subs (Rus,Eng)

Reply to topic
 
Author
Message

}{@R0N ®

Longevity: 3 years 6 months

Posts: 7331

Торрент-статистика

Post 16-Jan-2018 19:13

[Quote]

Электрические сны Филипа К. Дика
Philip K. Dick's Electric Dream
- Производство: США, Великобритания / Channel 4, Sony Pictures Television
Жанр: фантастика
Режиссер: Дэвид Фарр, Франческа Грегорини, Том Харпер
Актеры: Брайан Крэнстон, Стив Бушеми, Вера Фармига, Мирей Инос, Грег Киннир, Тимоти Сполл, Бенедикт Вонг, Холлидей Грейнджер, Ричард Мэдден, Лара Пулвер и др.
Описание:
Сериал основан на произведениях культового фантаста Филипа К. Дика. Каждая серия посвящена одному рассказу писателя: «Автофабрика», «Унылый незнакомец», «Проездной билет» и др.

Дата мировой премьеры: 17 сентября 2017
Релиз от: casstudio
Продолжительность: ~00:52:00 серия
Качество видео: WEB-DL Сэмпл
Перевод: Многоголосый закадровый, профессиональный - Amedia
Субтитры: русские, английские (полные, SDH)
Видео: AVC/H.264, 1920x1080 (16:9), ~5940 Kbps
Аудио #1: EAC3, 6 ch, 640 Kbps — русский, многоголосый закадровый
Аудио #2: EAC3, 6 ch, 640 Kbps — английский

Mediainfo:

Общее
Уникальный идентификатор : 185411734096281560437937828020810033090 (0x8B7D00465D5944AE8E4C200FAD7E27C2)
Полное имя : E:\Philip.K.Dicks.Electric.Dreams.S01.1080p.AMZN.WEB-DL.Rus.Eng_CasStudio\Philip.K.Dicks.Electric.Dreams.S01E07.Kill.All.Others.1080p.AMZN.WEB-DL.Rus.Eng_CasStudio.mkv
Формат : Matroska
Версия формата : Version 4 / Version 2
Размер файла : 2,48 Гбайт
Продолжительность : 48 м. 9 с.
Режим общего битрейта : Переменный
Общий поток : 7366 Кбит/сек
Название фильма : Philip K. Dick's Electric Dreams S01E07 - ReJliz CasStudio by BenderBEST
Дата кодирования : UTC 2018-01-14 13:45:10
Программа кодирования : mkvmerge v6.9.1 ('Blue Panther') 32bit built on Apr 18 2014 18:15:44
Библиотека кодирования : libebml v1.3.0 + libmatroska v1.4.1
Видео
Идентификатор : 1
Формат : AVC
Формат/Информация : Advanced Video Codec
Профиль формата : High@L4
Настройки формата : CABAC / 4 Ref Frames
Параметр CABAC формата : Да
Параметр RefFrames формата : 4 кадра
Идентификатор кодека : V_MPEG4/ISO/AVC
Продолжительность : 48 м. 9 с.
Вид битрейта : Переменный
Битрейт : 5940 Кбит/сек
Максимальный битрейт : 15,0 Мбит/сек
Ширина : 1920 пикселей
Высота : 1080 пикселей
Соотношение сторон : 16:9
Режим частоты кадров : Постоянный
Частота кадров : 23,976 (24000/1001) кадра/сек
Цветовое пространство : YUV
Субдискретизация насыщенности : 4:2:0
Битовая глубина : 8 бит
Тип развёртки : Прогрессивная
Бит/(Пиксели*Кадры) : 0.119
Размер потока : 2,00 Гбайт (81%)
Язык : English
Default : Да
Forced : Да
Цветовой диапазон : Limited
Основные цвета : BT.709
Характеристики трансфера : BT.709
Коэффициенты матрицы : BT.709
Аудио #1
Идентификатор : 2
Формат : E-AC-3
Формат/Информация : Enhanced Audio Coding 3
Параметр Endianness формата : Big
Идентификатор кодека : A_EAC3
Продолжительность : 48 м. 9 с.
Вид битрейта : Постоянный
Битрейт : 640 Кбит/сек
Каналы : 6 каналов
Расположение каналов : Front: L C R, Side: L R, LFE
Частота : 48,0 КГц
Частота кадров : 187,500 кадров/сек (256 SPF)
Метод сжатия : С потерями
Размер потока : 220 Мбайт (9%)
Заголовок : EAC3 5.1 @ 640 kbps - MVO, Amedia
Язык : Russian
ServiceKind/String : Complete Main
Default : Да
Forced : Да
Аудио #2
Идентификатор : 3
Формат : E-AC-3
Формат/Информация : Enhanced Audio Coding 3
Параметр Endianness формата : Big
Идентификатор кодека : A_EAC3
Продолжительность : 48 м. 9 с.
Вид битрейта : Постоянный
Битрейт : 640 Кбит/сек
Каналы : 6 каналов
Расположение каналов : Front: L C R, Side: L R, LFE
Частота : 48,0 КГц
Частота кадров : 187,500 кадров/сек (256 SPF)
Метод сжатия : С потерями
Размер потока : 220 Мбайт (9%)
Заголовок : EAC3 5.1 @ 640 kbps
Язык : English
ServiceKind/String : Complete Main
Default : Нет
Forced : Нет
Текст #1
Идентификатор : 4
Формат : UTF-8
Идентификатор кодека : S_TEXT/UTF8
Идентификатор кодека/Информация : UTF-8 Plain Text
Заголовок : Full
Язык : Russian
Default : Нет
Forced : Нет
Текст #2
Идентификатор : 5
Формат : UTF-8
Идентификатор кодека : S_TEXT/UTF8
Идентификатор кодека/Информация : UTF-8 Plain Text
Заголовок : Full
Язык : English
Default : Нет
Forced : Нет
Текст #3
Идентификатор : 6
Формат : UTF-8
Идентификатор кодека : S_TEXT/UTF8
Идентификатор кодека/Информация : UTF-8 Plain Text
Заголовок : SDH
Язык : English
Default : Нет
Forced : Нет
Меню
00:00:00.000 : en:Amazon Studios
00:00:05.000 : en:Title Sequence
00:00:54.000 : en:Ads become alive
00:02:26.000 : en:Phil watches an interview on the way to work
00:04:52.000 : en:Phil tells his coworkers about his home situation
00:08:37.000 : en:Phil returns home with some cheese
00:12:23.000 : en:Phil asks his coworkers if they saw the same interview last night
00:16:33.000 : en:Phil ends up re-watching the interview on his train ride home
00:18:38.000 : en:Phil is assessed after the accident
00:23:57.000 : en:A neighborhood altercation prevents Phil from heading to work
00:26:50.000 : en:Phil's supervisor places him on close supervision
00:32:25.000 : en:Phil decides to take matters into his own hands at a political interview
00:34:42.000 : en:Phil sneaks into his home
00:39:24.000 : en:Phil hides from the peace officers
00:43:49.000 : en:The Candidate gives a speech on the others
00:46:37.000 : en:End Credits

Список серий:

1. The Hood Maker
2. Impossible Planet
3. The Commuter
4. Crazy Diamond
5. Real Life
6. Human Is
7. Kill All Others
8. Autofac
9. Safe & Sound
10. The Father Thing
Скриншоты:
       
Other forum [Profile] [PM]
Similar theme
Forum Topic Author Torrent Replies Last Post
./templates/default/images/folder_dl.gif Справочники, энциклопедии и словари Г.В.Ярочкина | Электроматериаловедение. Рабочая тетрадь. Учебное пособие для начального профессионального образования (2008) [PDF] UndegraundMen
0 | 1

0 | 750

0

2013-09-25 11:00
UndegraundMen Latest
./templates/default/images/folder_dl.gif Справочники, энциклопедии и словари Г.Г.Червяков и др. | Электронные приборы. Учебное пособие (2012) [PDF] UndegraundMen
0 | 1

0 | 691

1

2013-09-26 11:27
UndegraundMen Latest
./templates/default/images/folder_dl.gif Справочники, энциклопедии и словари В.П.Драгунов и др. | Основы наноэлектроники. Учебное пособие (2006) [PDF] UndegraundMen
0 | 1

0 | 706

0

2013-10-06 17:02
UndegraundMen Latest
./templates/default/images/folder_dl.gif Обучающее видео Владимир Козин и Игорь Екимов | Сам себе электрик. Блок профи (2013) [unpacked] Omen
1 | 0

0 | 3285

63

2014-04-21 20:51
Omen Latest
./templates/default/images/folder_dl.gif Обучающее видео Алексей Пахомов | Ремонт электронных блоков управления современных автомобилей (2013) WEB-DL Omen
1 | 0

0 | 2431

117

2014-11-16 13:16
Omen Latest
./templates/default/images/folder_dl.gif Строительство, Дизайн и Ремонт Джексон Альберт, Дэй Дейвид | Электрика. Популярная энциклопедия от специалистов Legrand. Всё самое важное и нужное (2017) [PDF] }{@R0N
1 | 0

0 | 1500

22

2018-01-30 23:32
}{@R0N Latest
./templates/default/images/folder_dl.gif Строительство, Дизайн и Ремонт Дмитрий Федоров | Электропроводка в квартире. Своими руками (2016) [PDF] }{@R0N
1 | 0

0 | 858

13

2018-02-25 19:10
}{@R0N Latest
./templates/default/images/folder_dl.gif Техническая и научно-популярная литература Паоло Аливерти | Электроника для начинающих. Самый простой пошаговый самоучитель (2018) [PDF] }{@R0N
2 | 0

0 | 121922

30

2018-06-09 22:47
}{@R0N Latest
./templates/default/images/folder_dl.gif Строительство, Дизайн и Ремонт В.М. Жабцев | Большая книга электрика. Самое полное иллюстрированное руководство (2017) [PDF] }{@R0N
1 | 0

0 | 404

6

2019-03-06 21:15
}{@R0N Latest
./templates/default/images/folder_dl.gif Программы ПТЭЭП-2003 (2019) v2.2 + Mod [Ru] - мобильная версия Правил технической эксплуатации электроустановок потребителей Anonymous
1 | 0

0 | 274

0

2019-03-29 13:53
Anonymous Latest
Display posts from previous:    
Reply to topic

The time now is: Today 21:18

All times are GMT + 3 Hours



You cannot post new topics in this forum
You cannot reply to topics in this forum
You cannot edit your posts in this forum
You cannot delete your posts in this forum
You cannot vote in polls in this forum
You cannot attach files in this forum
You cannot download files in this forum