Today is a free download without charge Download

(Baroque arias) G.F.Handel - David Daniels (countertenor), Operatic arias(Ariodante, Giulio Cesare, Rinaldo, Rodelinda, Serse, Tamerlano ), Orchestra of the Age of Enlightenment - Sir Roger Norrington(conductor) 1998 APE (tracks+cue.) lossless

Reply to topic
 
Author
Message

Koralina ®

Longevity: 7 years 11 months

Posts: 994

Location: Lithuania

Торрент-статистика

Post 10-Dec-2011 15:06

[Quote]

G.F.Handel - David Daniels (countertenor), Operatic arias(Ariodante, Giulio Cesare, Rinaldo, Rodelinda, Serse, Tamerlano ) 1998
Жанр: Baroque arias
Страна-производитель диска: London, England
Год издания диска: 1998
Издатель (лейбл): Virgin Classic
Дата записи: 1998
Аудиокодек: APE
Тип рипа: tracks+.cue
Битрейт аудио: lossless
Продолжительность: 59:26
Источник: собственный рип
Наличие сканов в содержимом раздачи: Добавлены
Треклист:
1.Serse - Frondi tenere...
2.Serse - Ombra mai fu (3:50)
3.Giulio Cesare in Egitto - Va tacito e nascosto (6:06)
4.Giulio Cesare in Egitto - Al lampo dell' armi (3:09)
5.Giulio Cesare in Egitto - Dall' ondoso periglio...
6.Giulio Cesare in Egitto - Aure, deh, per pieta (7:30)
7.Tamerlano - A dispetto (4;38)
8.Ariodante - E vivo ancora...
9.Ariodante - Scherza infida (9:02)
10.Giulio Cesare in Egitto - Cara speme (4:51)
11.Giulio Cesare in Egitto - L'angue offeso (5:04)
12.Rodelinda - Pompe vane di morte...
13.Rodelinda - Dove sei?(6:15)
14.Rodelinda - Vivi tiranno (5:23)
15.Rinaldo - Cara sposa, amante cara (9:52)
16.Rinaldo - Venti, Turbini (3:42)
Исполнители:
David Daniels (countertenor), Orchestra of the Age of Enlightenment - Sir Roger Norrington ( Direction, conductor)

EAC

Exact Audio Copy V0.99 prebeta 5 from 4. May 2009
EAC extraction logfile from 16. November 2010, 6:38
David Daniels / Handel - Operatic Arias
Used drive : Optiarc DVD RW AD-7243S Adapter: 3 ID: 1
Read mode : Secure
Utilize accurate stream : Yes
Defeat audio cache : Yes
Make use of C2 pointers : No
Read offset correction : 48
Overread into Lead-In and Lead-Out : No
Fill up missing offset samples with silence : Yes
Delete leading and trailing silent blocks : No
Null samples used in CRC calculations : Yes
Used interface : Native Win32 interface for Win NT & 2000
Gap handling : Not detected, thus appended to previous track
Used output format : Internal WAV Routines
Sample format : 44.100 Hz; 16 Bit; Stereo
TOC of the extracted CD
Track | Start | Length | Start sector | End sector
---------------------------------------------------------
1 | 0:00.00 | 0:45.20 | 0 | 3394
2 | 0:45.20 | 3:05.20 | 3395 | 17289
3 | 3:50.40 | 6:05.60 | 17290 | 44724
4 | 9:56.25 | 3:09.00 | 44725 | 58899
5 | 13:05.25 | 2:01.50 | 58900 | 68024
6 | 15:07.00 | 5:28.10 | 68025 | 92634
7 | 20:35.10 | 4:38.20 | 92635 | 113504
8 | 25:13.30 | 0:22.67 | 113505 | 115221
9 | 25:36.22 | 8:40.60 | 115222 | 154281
10 | 34:17.07 | 4:50.40 | 154282 | 176071
11 | 39:07.47 | 5:03.48 | 176072 | 198844
12 | 44:11.20 | 1:58.15 | 198845 | 207709
13 | 46:09.35 | 4:17.12 | 207710 | 226996
14 | 50:26.47 | 5:22.38 | 226997 | 251184
15 | 55:49.10 | 9:52.15 | 251185 | 295599
16 | 65:41.25 | 3:42.57 | 295600 | 312306
Track 1
Filename D:\временная папка Lossless\01. David Daniels - Serse) , Recitativo Accompagnato, Frondi Tenere.wav
Peak level 46.6 %
Track quality 100.0 %
Test CRC AFF76C06
Copy CRC AFF76C06
Cannot be verified as accurate (confidence 7) [2B4048D7], AccurateRip returned [386021F1]
Copy OK
Track 2
Filename D:\временная папка Lossless\02. David Daniels - Serse) , Larghetto, Ombra Mai Fu.wav
Peak level 83.5 %
Track quality 99.9 %
Test CRC 25FA057A
Copy CRC 25FA057A
Cannot be verified as accurate (confidence 7) [80A77F45], AccurateRip returned [7FF5E224]
Copy OK
Track 3
Filename D:\временная папка Lossless\03. David Daniels - Giulio Cesare in Egitto) , Aria, va Tacito e Nascosto.wav
Peak level 62.2 %
Track quality 100.0 %
Test CRC 75D99572
Copy CRC 75D99572
Cannot be verified as accurate (confidence 7) [C7490773], AccurateRip returned [76CB4541]
Copy OK
Track 4
Filename D:\временная папка Lossless\04. David Daniels - Giulio Cesare in Egitto) , Aria, al Lampo Dell' Armi.wav
Peak level 72.7 %
Track quality 100.0 %
Test CRC 25376AC8
Copy CRC 25376AC8
Cannot be verified as accurate (confidence 7) [240BD861], AccurateRip returned [1D5835A9]
Copy OK
Track 5
Filename D:\временная папка Lossless\05. David Daniels - Giulio Cesare in Egitto) , Recitativo Accompagnato, Dall'ondoso Periglio.wav
Peak level 60.9 %
Track quality 100.0 %
Test CRC 77967AD6
Copy CRC 77967AD6
Cannot be verified as accurate (confidence 7) [A29518DB], AccurateRip returned [07374C90]
Copy OK
Track 6
Filename D:\временная папка Lossless\06. David Daniels - Giulio Cesare in Egitto) , Aria, Aure, Deh, Per Pieta.wav
Peak level 50.8 %
Track quality 100.0 %
Test CRC 98AC2B51
Copy CRC 98AC2B51
Cannot be verified as accurate (confidence 7) [4EFF1BDB], AccurateRip returned [7CF97353]
Copy OK
Track 7
Filename D:\временная папка Lossless\07. David Daniels - Tamerlano) , Aria, a Dispetto.wav
Peak level 71.0 %
Track quality 99.9 %
Test CRC 4CD0A913
Copy CRC 4CD0A913
Cannot be verified as accurate (confidence 7) [8E67C446], AccurateRip returned [0E1ED227]
Copy OK
Track 8
Filename D:\временная папка Lossless\08. David Daniels - Ariodante) , Recitativo, e Vivo Ancora.wav
Peak level 47.0 %
Track quality 99.5 %
Test CRC 99CCDD46
Copy CRC 99CCDD46
Cannot be verified as accurate (confidence 7) [5D270642], AccurateRip returned [9CA310E2]
Copy OK
Track 9
Filename D:\временная папка Lossless\09. David Daniels - Ariodante) , Aria, Scherza Infida.wav
Peak level 73.5 %
Track quality 100.0 %
Test CRC 6C3C6EA9
Copy CRC 6C3C6EA9
Cannot be verified as accurate (confidence 7) [9AE42DAD], AccurateRip returned [D81CD0B4]
Copy OK
Track 10
Filename D:\временная папка Lossless\10. David Daniels - Giulo Cesare in Egitto) , Aria, Cara Speme.wav
Peak level 99.1 %
Track quality 99.9 %
Test CRC EB6FA872
Copy CRC EB6FA872
Cannot be verified as accurate (confidence 7) [4CC54B81], AccurateRip returned [6949F391]
Copy OK
Track 11
Filename D:\временная папка Lossless\11. David Daniels - Giulo Cesare in Egitto) , Aria, L'angue Offeso.wav
Peak level 66.4 %
Track quality 100.0 %
Test CRC FE50FDE6
Copy CRC FE50FDE6
Cannot be verified as accurate (confidence 7) [8E8E57A7], AccurateRip returned [8E03DABA]
Copy OK
Track 12
Filename D:\временная папка Lossless\12. David Daniels - Rodelinda) , Sinfonia, Pompe Vane di Morte.wav
Peak level 34.8 %
Track quality 99.9 %
Test CRC EEC835B8
Copy CRC EEC835B8
Cannot be verified as accurate (confidence 7) [1C06CB73], AccurateRip returned [0B2B622C]
Copy OK
Track 13
Filename D:\временная папка Lossless\13. David Daniels - Rodelinda) , Largo, Dove Sei, Amato Bene.wav
Peak level 58.6 %
Track quality 100.0 %
Test CRC 3E2337C7
Copy CRC 3E2337C7
Cannot be verified as accurate (confidence 7) [0C72A0E8], AccurateRip returned [64DCFD90]
Copy OK
Track 14
Filename D:\временная папка Lossless\14. David Daniels - Rodelinda) , Aria, Vivi, Tiranno.wav
Peak level 60.4 %
Track quality 100.0 %
Test CRC F6035A65
Copy CRC F6035A65
Cannot be verified as accurate (confidence 7) [D47C762C], AccurateRip returned [D36A106E]
Copy OK
Track 15
Filename D:\временная папка Lossless\15. David Daniels - Rinaldo) , Largo, Cara Sposa, Amante Cara.wav
Peak level 64.0 %
Track quality 100.0 %
Test CRC 7E4B2443
Copy CRC 7E4B2443
Cannot be verified as accurate (confidence 7) [0E1B560F], AccurateRip returned [7237AD0A]
Copy OK
Track 16
Filename D:\временная папка Lossless\16. David Daniels - Rinaldo) , Aria, Venti, Turbini.wav
Peak level 99.0 %
Track quality 100.0 %
Test CRC 2310218E
Copy CRC 2310218E
Cannot be verified as accurate (confidence 7) [449552F3], AccurateRip returned [31222F2E]
Copy OK
No tracks could be verified as accurate
You may have a different pressing from the one(s) in the database
No errors occurred
End of status report

CUE

REM GENRE Opera
REM DATE 1998
REM DISCID EB104410
REM COMMENT "ExactAudioCopy v0.99pb5"
PERFORMER "David Daniels"
TITLE "Handel - Operatic Arias"
FILE "01. David Daniels - Serse) , Recitativo Accompagnato, Frondi Tenere.wav" WAVE
TRACK 01 AUDIO
TITLE "Serse) / Recitativo Accompagnato, Frondi Tenere"
PERFORMER "David Daniels"
INDEX 01 00:00:00
FILE "02. David Daniels - Serse) , Larghetto, Ombra Mai Fu.wav" WAVE
TRACK 02 AUDIO
TITLE "Serse) / Larghetto, Ombra Mai Fu"
PERFORMER "David Daniels"
INDEX 01 00:00:00
FILE "03. David Daniels - Giulio Cesare in Egitto) , Aria, va Tacito e Nascosto.wav" WAVE
TRACK 03 AUDIO
TITLE "Giulio Cesare in Egitto) / Aria, va Tacito e Nascosto"
PERFORMER "David Daniels"
INDEX 01 00:00:00
FILE "04. David Daniels - Giulio Cesare in Egitto) , Aria, al Lampo Dell' Armi.wav" WAVE
TRACK 04 AUDIO
TITLE "Giulio Cesare in Egitto) / Aria, al Lampo Dell' Armi"
PERFORMER "David Daniels"
INDEX 01 00:00:00
FILE "05. David Daniels - Giulio Cesare in Egitto) , Recitativo Accompagnato, Dall'ondoso Periglio.wav" WAVE
TRACK 05 AUDIO
TITLE "Giulio Cesare in Egitto) / Recitativo Accompagnato, Dall'ondoso Periglio"
PERFORMER "David Daniels"
INDEX 01 00:00:00
FILE "06. David Daniels - Giulio Cesare in Egitto) , Aria, Aure, Deh, Per Pieta.wav" WAVE
TRACK 06 AUDIO
TITLE "Giulio Cesare in Egitto) / Aria, Aure, Deh, Per Pieta"
PERFORMER "David Daniels"
INDEX 01 00:00:00
FILE "07. David Daniels - Tamerlano) , Aria, a Dispetto.wav" WAVE
TRACK 07 AUDIO
TITLE "Tamerlano) / Aria, a Dispetto"
PERFORMER "David Daniels"
INDEX 01 00:00:00
FILE "08. David Daniels - Ariodante) , Recitativo, e Vivo Ancora.wav" WAVE
TRACK 08 AUDIO
TITLE "Ariodante) / Recitativo, e Vivo Ancora"
PERFORMER "David Daniels"
INDEX 01 00:00:00
FILE "09. David Daniels - Ariodante) , Aria, Scherza Infida.wav" WAVE
TRACK 09 AUDIO
TITLE "Ariodante) / Aria, Scherza Infida"
PERFORMER "David Daniels"
INDEX 01 00:00:00
FILE "10. David Daniels - Giulo Cesare in Egitto) , Aria, Cara Speme.wav" WAVE
TRACK 10 AUDIO
TITLE "Giulo Cesare in Egitto) / Aria, Cara Speme"
PERFORMER "David Daniels"
INDEX 01 00:00:00
FILE "11. David Daniels - Giulo Cesare in Egitto) , Aria, L'angue Offeso.wav" WAVE
TRACK 11 AUDIO
TITLE "Giulo Cesare in Egitto) / Aria, L'angue Offeso"
PERFORMER "David Daniels"
INDEX 01 00:00:00
FILE "12. David Daniels - Rodelinda) , Sinfonia, Pompe Vane di Morte.wav" WAVE
TRACK 12 AUDIO
TITLE "Rodelinda) / Sinfonia, Pompe Vane di Morte"
PERFORMER "David Daniels"
INDEX 01 00:00:00
FILE "13. David Daniels - Rodelinda) , Largo, Dove Sei, Amato Bene.wav" WAVE
TRACK 13 AUDIO
TITLE "Rodelinda) / Largo, Dove Sei, Amato Bene"
PERFORMER "David Daniels"
INDEX 01 00:00:00
FILE "14. David Daniels - Rodelinda) , Aria, Vivi, Tiranno.wav" WAVE
TRACK 14 AUDIO
TITLE "Rodelinda) / Aria, Vivi, Tiranno"
PERFORMER "David Daniels"
INDEX 01 00:00:00
FILE "15. David Daniels - Rinaldo) , Largo, Cara Sposa, Amante Cara.wav" WAVE
TRACK 15 AUDIO
TITLE "Rinaldo) / Largo, Cara Sposa, Amante Cara"
PERFORMER "David Daniels"
INDEX 01 00:00:00
FILE "16. David Daniels - Rinaldo) , Aria, Venti, Turbini.wav" WAVE
TRACK 16 AUDIO
TITLE "Rinaldo) / Aria, Venti, Turbini"
PERFORMER "David Daniels"
INDEX 01 00:00:00

Доп.Инф.

На момент создания раздачи создание сканов возможности не имелось, по личной просьбе Caterina Sforza scans были изготовлены, если будут необходимы надеюсь он/она их любезно предоставит, если нет изготовлю снова(зачем то по получении удалил с кома),прошу обращайтесь в "ЛС".

_________________
Other forum [Profile] [PM]
Display posts from previous:    
Reply to topic

The time now is: Today 09:58

All times are GMT + 3 Hours



You cannot post new topics in this forum
You cannot reply to topics in this forum
You cannot edit your posts in this forum
You cannot delete your posts in this forum
You cannot vote in polls in this forum
You cannot attach files in this forum
You cannot download files in this forum