Today is a free download without charge Download

Остров Сокровищ / Selen the Girl of Treasure Island / Selen nell'Isola del Tesoro (Joe D'Amato / In-X-Cess) [1998 г., Feature, European, Anal, DP, DPP, Costumes, DVDRip, 480p] (Selen, Deborah Valentine as Gabriella Vincze) [RUS]

Reply to topic
 
Author
Message

XP1971 ®

Торрент-статистика

Post 28-Jan-2017 11:52

[Quote]

-Остров Сокровищ

Selen the Girl of Treasure Island

Selen nell'Isola del Tesoro
-- Страна: ITALY
Студия: In-X-Cess
Год выпуска: 1998 г.
Режиссер: Joe D'Amato
Продолжительность: 01:34:18
Оригинальный аудиопоток: английский
Жанр: Feature, European, Anal, DP, DPP, Costumes
Перевод: Профессиональный (одноголосый, SP Company)-В ролях:
Selen, Deborah Valentine as Gabriella Vincze, Sheila Stanton as Csilla Kalnay, Judith Kostner as Judith Weller, Katalyn Hoffner, Karli Sweet as Hajny, Cyndy as Hildiko Buckly, Jay Lassiter as Horst Kallinger, Zenza Raggi, Remigio Zampa as Remigio, Chris Charming, Davide Gladio-Оригинальное описание:
Joanna is the niece of an old pirate named Flint, who was the right-hand man of the famous Captain Ahab. Jack spends the night with her in the hope of discovering the whereabouts of a map that reveals the secret location of Ahab's treasure. When she discovers his true intent, Joanna decides to search for the treasure herself. Her initial attempt yields little success. She embarks on a series of exciting adventures, getting involved with a sultan's harem and a band of female pirates along the way. Finally, Joanna and her pirate friends overcome their enemies, and with Ahab's treasure in their hands create a new nation "Paradise Island."-Описание на русском:
Джоанна - племянница старого пирата по имени Флинт, который был правой рукой знаменитого капитана Ахэба. Джек проводит ночь с нею в надежде узнать, где находится карта, указывающая секретное местоположение сокровищ Ахэба. Когда Джоанна узнает о его истинных намерениях, она решает искать сокровище сама. Ее начальная попытка приводит к небольшому успеху. Она попадает в целый ряд захватывающих приключений, связанных с гаремом султана и бандой женщин-пиратов. Наконец, Джоанна и ее друзья-пираты побеждают своих врагов, и с сокровищем Ахэба в руках создают новую нацию "Райский Остров".
Прекрасные женщины, роскошные костюмы, красивые интерьеры, горячий секс и приключения - вот рецепт хорошего фильма для взрослых от Джо Д'Амато!-
Контейнер: AVI
Аудио кодек: AC3
Видео кодек: XviD
Cубтитры: отсутствуют
Качество видео: DVDRip
Стандарт разрешения: 480p
Аудио: Audio Coding 3 | 48.0 KHz | 2 ch | 192.0 Kbps
Видео: AVC | 640х480 | 1299 Кbps | 25.0 fps | 0.169 bit/pixel

Media Info

Код:
Общее
Полное имя : Ostrov_sokrovish_[...].avi
Формат : AVI
Формат/Информация : Audio Video Interleave
Размер файла : 1013 Мбайт
Продолжительность : 1 ч. 34 м.
Общий поток : 1502 Кбит/сек
Программа кодирования : Lavf54.63.104
Видео
Идентификатор : 0
Формат : xvid
Идентификатор кодека : xvid
Продолжительность : 1 ч. 34 м.
Битрейт : 1299 Кбит/сек
Ширина : 640 пикселей
Высота : 480 пикселей
Соотношение сторон : 4:3
Частота кадров : 25,000 кадров/сек
Бит/(Пиксели*Кадры) : 0.169
Размер потока : 876 Мбайт (86%)
Аудио
Идентификатор : 1
Формат : AC-3
Формат/Информация : Audio Coding 3
Расширение режима : CM (complete main)
Параметр Endianness формата : Big
Идентификатор кодека : 2000
Продолжительность : 1 ч. 34 м.
Вид битрейта : Постоянный
Битрейт : 192 Кбит/сек
Каналы : 2 канала
Расположение каналов : Front: L R
Частота : 48,0 КГц
Битовая глубина : 16 бит
Метод сжатия : С потерями
Размер потока : 130 Мбайт (13%)
Выравнивание : Соединение по промежуткам
Продолжительность промежутка : 32 мс. (0,80 видеокадр)

Обложка

Скринлист

Скриншоты

                                                       
 
Similar theme
Forum Topic Author Torrent Replies Last Post
./templates/default/images/folder_dl.gif Компьютерная литература Подборка книг | Литература по сайтостроению [22 книги] (2008-2013) [FB2] Omen
1 | 0

0 | 2291

25

2014-12-24 12:14
Omen Latest
./templates/default/images/folder_dl.gif Новинки (HD|DVD|BD|WEB|TV|SAT|PDTV|-Rip) Дом, который построил Джек / The House That Jack Built (Ларс фон Триер) [2018 г., ужасы, триллер, драма, WEB-DLRip]DUB | iTunes kilmister777
1 | 0

0 | 485

5

2019-03-01 09:52
kilmister777 Latest
./templates/default/images/folder_dl.gif Новинки (HD|DVD|BD|WEB|TV|SAT|PDTV|-Rip) Потерянный остров (Денис Силяков) [2019 г., драма, триллер, детектив, WEB-DLRip] iTunes kilmister777
1 | 0

0 | 288

0

2019-05-27 08:39
kilmister777 Latest
Display posts from previous:    
Reply to topic

The time now is: Today 18:57

All times are GMT + 3 Hours



You cannot post new topics in this forum
You cannot reply to topics in this forum
You cannot edit your posts in this forum
You cannot delete your posts in this forum
You cannot vote in polls in this forum
You cannot attach files in this forum
You cannot download files in this forum