Сегодня идет свободное скачивание без начисления Download

Склифосовский / Склиф (2017) SATRip (сезон 5, серии 1-16 из 16)

Ответить на тему
 
Автор
Сообщение

}{@R0N ®

Стаж: 1 год 11 месяцев

Сообщений: 4864

Торрент-статистика

Пост 26-Янв-2017 21:38

[Цитировать]

Склифосовский / Склиф - Производство: Россия / Кинокомпания Русское
Жанр: драма, мелодрама
Режиссер: Андрей Селиванов
Актеры: Максим Аверин, Ольга Красько, Мария Кожевникова, Дмитрий Миллер, Лаура Кеосаян, Эммануил Виторган, Ольга Павловец, Марина Могилевская, Константин Юшкевич, Алена Яковлева, Владимир Жеребцов и др.
Описание:
После взрыва в финале предыдущего сезона жизнь Олега Брагина, талантливого хирурга, оказывается под угрозой. Однако коллегам удается спасти Брагина, правда, Олег перенес сложную операцию, после которой на некоторое время впал в кому. Он потихоньку восстанавливает свои сил. Вокруг все говорят, что Брагин — настоящий герой. Все, кроме одного человека: жены Олега Нарочинской, которая не может простить возлюбленному его поступок. Она бросает Брагина и намерена развестись с ним. Чтобы вернуть свою любовь, Олег должен кардинально поменять свой образ жизни, и тогда, возможно, у него появится возможность вернуть Марину.

Возраст: 16+ (зрителям, достигшим 16 лет)
Продолжительность: ~00:52:00 серия
Качество видео: SATRip
Видео: XviD, 720x400 (16:9), ~1797 Kbps
Аудио: MP3, 48.0 KHz, 2 ch, 128 Kbps, CBR

Mediainfo:

Общее
Полное имя : D:\[1]\Склифосовский\Склифосовский-5 (Склиф) (2017)\Склифосовский-5 (Склиф). Серия 01 (2017).avi
Формат : AVI
Формат/Информация : Audio Video Interleave
Размер файла : 734 Мбайт
Продолжительность : 53 м.
Общий поток : 1935 Кбит/сек
Программа кодирования : VirtualDubMod 1.5.10.3 | www.virtualdub-fr.org || (build 2550/release)
Библиотека кодирования : VirtualDub build 29808/release
Видео
Идентификатор : 0
Формат : MPEG-4 Visual
Профиль формата : Advanced Simple@L5
Параметр BVOP формата : 2
Параметр QPel формата : Нет
Параметр GMC формата : Без точки перехода
Параметр матрицы формата : Default (H.263)
Идентификатор кодека : XVID
Идентификатор кодека/Подсказка : XviD
Продолжительность : 53 м.
Битрейт : 1797 Кбит/сек
Ширина : 720 пикселей
Высота : 400 пикселей
Соотношение сторон : 16:9
Частота кадров : 25,000 кадров/сек
Цветовое пространство : YUV
Субдискретизация насыщенности : 4:2:0
Битовая глубина : 8 бит
Тип развёртки : Прогрессивная
Метод сжатия : С потерями
Бит/(Пиксели*Кадры) : 0.250
Размер потока : 682 Мбайт (93%)
Библиотека кодирования : XviD 1.2.1 (UTC 2008-12-04)
Аудио
Идентификатор : 1
Формат : MPEG Audio
Версия формата : Version 1
Профиль формата : Layer 3
Режим : Joint stereo
Расширение режима : MS Stereo
Идентификатор кодека : 55
Идентификатор кодека/Подсказка : MP3
Продолжительность : 53 м.
Вид битрейта : Постоянный
Битрейт : 128 Кбит/сек
Каналы : 2 канала
Частота : 48,0 КГц
Метод сжатия : С потерями
Размер потока : 48,6 Мбайт (7%)
Выравнивание : Соединение по промежуткам
Продолжительность промежутка : 40 мс. (1,00 видеокадр)
Время предзагрузки промежутка : 504 мс.
Библиотека кодирования : LAME3.99r
Настройки программы : -m j -V 4 -q 2 -lowpass 17 -b 128
Скриншоты:
       
Вне форума [Профиль] [ЛС]
Показать сообщения:    
Ответить на тему

Текущее время: Сегодня 07:29

Часовой пояс: GMT + 3



Вы не можете начинать темы
Вы не можете отвечать на сообщения
Вы не можете редактировать свои сообщения
Вы не можете удалять свои сообщения
Вы не можете голосовать в опросах
Вы не можете прикреплять файлы к сообщениям
Вы не можете скачивать файлы