Сегодня идет свободное скачивание без начисления Download

Принцесса с севера / Серии: 1-4 из 4 (Владимир Зайкин, Марина Сулейманова) [2015, Мелодрама, HDTVRip]

Ответить на тему
 
Автор
Сообщение

Omen ®

Стаж: 4 года 11 месяцев

Сообщений: 190621

Торрент-статистика

Пост 16-Янв-2017 01:00

[Цитировать]

Принцесса с севера
- Год выпуска: 2015
Производство: «Киностудия Крылья»
Жанр: Мелодрама
Продолжительность: 00:44:00
Субтитры: нет-Режиссёр: Владимир Зайкин, Марина Сулейманова-В ролях: Полина Максимова, Алексей Нестеренко, Роман Курцын, Василий Шемякинский, Дмитрий Марьянов, Шухрат Иргашев, Павел Майков, Ольга Балашова, Юлия Юсупова, Ирина Лосева, Рустам Сагдуллаев, Амет Согиа, Мария Кудрявцева, Амаяк Чинарян, Константин Адаев, Владимир Носик, Аркадий Данилов (II), Александр Печенин, Марина Зубанова, Юрий Гумиров, Софья Цепкова-Описание: Вика обучается в самом престижном ВУЗе Москвы, она занимается изучением истории и культуры страны Аджахар. Для того чтобы узнать об этой стране больше, девушка отправляется туда в командировочный отпуск.-Релиз-группа: -Сэмпл-Качество: HDTVRip
Формат: AVI
Видео кодек: XviD
Аудио кодек: AC3
Видео: 720х400 (16:9), 25.000 fps, XviD, 1577 Kbps, 0.22 Bits/Pixel
Аудио: 48 kHz, AC3 Dolby Digital, 2 ch, 192 Kbps-Реклама: Нет-

MI

General
Complete name : Downloads\Princessa.s.severa.2016.HDTVRip.Files-x\01.Princessa.s.severa.2016.HDTVRip.Files-x.avi
Format : AVI
Format/Info : Audio Video Interleave
File size : 550 MiB
Duration : 43mn 16s
Overall bit rate : 1 778 Kbps
Writing application : VirtualDubMod 1.5.10.3 | www.virtualdub-fr.org || (build 2550/release)
Writing library : VirtualDubMod build 2550/release
Video #0
ID : 0
Format : MPEG-4 Visual
Format profile : Advanced Simple@L5
Format settings, BVOP : 1
Format settings, QPel : No
Format settings, GMC : No warppoints
Format settings, Matrix : Custom
Codec ID : XVID
Codec ID/Hint : XviD
Duration : 43mn 16s
Bit rate : 1 577 Kbps
Width : 720 pixels
Height : 400 pixels
Display aspect ratio : 16:9
Frame rate : 25.000 fps
Color space : YUV
Chroma subsampling : 4:2:0
Bit depth : 8 bits
Scan type : Progressive
Compression mode : Lossy
Bits/(Pixel*Frame) : 0.219
Stream size : 488 MiB (89%)
Writing library : XviD 73
Audio #1
ID : 1
Format : AC-3
Format/Info : Audio Coding 3
Mode extension : CM (complete main)
Format settings, Endianness : Big
Codec ID : 2000
Duration : 43mn 16s
Bit rate mode : Constant
Bit rate : 192 Kbps
Channel(s) : 2 channels
Channel positions : Front: L R
Sampling rate : 48.0 KHz
Bit depth : 16 bits
Compression mode : Lossy
Stream size : 59.4 MiB (11%)
Alignment : Split accross interleaves
Interleave, duration : 40 ms (1.00 video frame)
Interleave, preload duration : 500 ms

Скриншоты

Вне форума [Профиль] [ЛС]
Показать сообщения:    
Ответить на тему

Текущее время: Сегодня 07:29

Часовой пояс: GMT + 3



Вы не можете начинать темы
Вы не можете отвечать на сообщения
Вы не можете редактировать свои сообщения
Вы не можете удалять свои сообщения
Вы не можете голосовать в опросах
Вы не можете прикреплять файлы к сообщениям
Вы не можете скачивать файлы