Сегодня идет свободное скачивание без начисления Download

Бедные люди / Серии: 1-17 из 17 (Жанна Кадникова) [2016, Комедия, WEBRip 720p]

Ответить на тему
 
Автор
Сообщение

Omen ®

Стаж: 4 года 11 месяцев

Сообщений: 190621

Торрент-статистика

Пост 16-Янв-2017 01:00

[Цитировать]

Бедные люди
- Год выпуска: 2016
Производство: Good Story Media
Жанр: Комедия
Продолжительность: 00:24:00
Субтитры: нет-Режиссёр: Жанна Кадникова-В ролях: Дмитрий Лысенков, Александр Адабашьян, Алиса Гребенщикова, Павел Сборщиков, Ангелина Миримская, Максим Филипьев, Марина Богатова, Александр Мехряков, Екатерина Караченцева, Ольга Бузова, Ульяна Куликова, Максим Деричев, Марина Вайнбранд, Артур Купалян, Алёна Водонаева, Александр Незлобин, Мария Скорницкая, Лаура Пицхелаури, Алексей Ильин-Описание: История интеллигентного неудачника, который живет в коммунальной квартире в Петербурге, работает «литературным негром» у Ольги Бузовой и пишет от ее лица автобиографию.- / -Качество: WEBRip 720p
Формат: MKV
Видео кодек: H.264
Аудио кодек: AC3
Видео: MPEG-4 AVC, 1280x720 (16:9), 25.000 fps, 1462, 0.63 bits/pixel
Аудио: 48 kHz, AC3 Dolby Digital, 2 ch, 192 Kbps-Реклама: Нет--

MI

General
Complete name : Downloads\Бедные люди 2016 WEB-DL (720p)\Серия 01.mkv
Format : Matroska
Format version : Version 4 / Version 2
File size : 290 MiB
Duration : 24mn 2s
Overall bit rate : 1 688 Kbps
Encoded date : UTC 2016-05-24 13:05:59
Writing application : mkvmerge v9.0.0 ('Power to progress') 64bit
Writing library : libebml v1.3.3 + libmatroska v1.4.4
DURATION : 00:24:02.464000000
NUMBER_OF_FRAMES : 45077
NUMBER_OF_BYTES : 34619136
_STATISTICS_WRITING_APP : mkvmerge v9.0.0 ('Power to progress') 64bit
_STATISTICS_WRITING_DATE_UTC : 2016-05-24 13:05:59
_STATISTICS_TAGS : BPS DURATION NUMBER_OF_FRAMES NUMBER_OF_BYTES
Video #1
ID : 1
Format : AVC
Format/Info : Advanced Video Codec
Format profile : High@L3.1
Format settings, CABAC : Yes
Format settings, ReFrames : 1 frame
Format settings, GOP : M=1, N=12
Codec ID : V_MPEG4/ISO/AVC
Duration : 24mn 2s
Bit rate : 1 462 Kbps
Width : 1 280 pixels
Height : 720 pixels
Display aspect ratio : 16:9
Frame rate mode : Constant
Frame rate : 25.000 fps
Standard : Component
Color space : YUV
Chroma subsampling : 4:2:0
Bit depth : 8 bits
Scan type : Progressive
Bits/(Pixel*Frame) : 0.063
Stream size : 251 MiB (87%)
Default : Yes
Forced : No
Color range : Limited
Audio #2
ID : 2
Format : AC-3
Format/Info : Audio Coding 3
Mode extension : CM (complete main)
Format settings, Endianness : Big
Codec ID : A_AC3
Duration : 24mn 2s
Bit rate mode : Constant
Bit rate : 192 Kbps
Channel(s) : 2 channels
Channel positions : Front: L R
Sampling rate : 48.0 KHz
Bit depth : 16 bits
Compression mode : Lossy
Stream size : 33.0 MiB (11%)
Default : Yes
Forced : No

Скриншоты

Вне форума [Профиль] [ЛС]
Показать сообщения:    
Ответить на тему

Текущее время: Сегодня 07:29

Часовой пояс: GMT + 3



Вы не можете начинать темы
Вы не можете отвечать на сообщения
Вы не можете редактировать свои сообщения
Вы не можете удалять свои сообщения
Вы не можете голосовать в опросах
Вы не можете прикреплять файлы к сообщениям
Вы не можете скачивать файлы