Сегодня идет свободное скачивание без начисления Download

Волевой приём / Серии: 1-2 из 2 (Дмитрий Булин) [2016, драма, спортивный фильм, HDTVRip]

Ответить на тему
 
Автор
Сообщение

Omen ®

Стаж: 4 года 11 месяцев

Сообщений: 190621

Торрент-статистика

Пост 13-Янв-2017 01:00

[Цитировать]

Волевой приём- Год выпуска: 2016
Производство:АртПикчерс, Кинокомпания «Бабблгам продакшн»
Жанр: драма, спортивный фильм
Продолжительность: 00:46:00
Субтитры: нет-Режиссёр: Дмитрий Булин-В ролях: Евгений Романцов, Илья Алексеев, Светлана Павлова, Александр Тютин, Сергей Иванюк, Алексей Медведев, Денис Бобышев-Описание: Макс Кораблев завязал с хоккеем, потому что его одержимость разрушала жизнь и ему, и его близким. Он теперь работает в полиции и однажды задерживает молодого парня, Никиту, которому грозит срок... А парень этот - талантливый хоккеист местной команды. Помогая Никите избежать ошибок, которые совершил он сам, Максим разбирается в себе и избавляется от призраков прошлого.-Сэмпл-Релиз от: -Качество: HDTVRip
Формат: AVI
Видео кодек: XviD
Аудио кодек: AC3
Видео: 720x400 (16:9), 25.000 fps, XviD build 73, 1604 Kbps, 0.22 Bits/Pixel
Аудио: 48 kHz, AC3 Dolby Digital, 2 ch, 192 Kbps-Реклама: Нет-

MI

General
Complete name : Downloads\Волевой приём (2016).HDTVRip.RG.Russkie.serialy.&.Files-x\
Format : AVI
Format/Info : Audio Video Interleave
File size : 600 MiB
Duration : 46mn 26s
Overall bit rate : 1 806 Kbps
Writing application : VirtualDubMod 1.5.10.3 | www.virtualdub-fr.org || (build 2550/release)
Writing library : VirtualDubMod build 2550/release
Video #0
ID : 0
Format : MPEG-4 Visual
Format profile : Advanced Simple@L5
Format settings, BVOP : 1
Format settings, QPel : No
Format settings, GMC : No warppoints
Format settings, Matrix : Custom
Codec ID : XVID
Codec ID/Hint : XviD
Duration : 46mn 26s
Bit rate : 1 604 Kbps
Width : 720 pixels
Height : 400 pixels
Display aspect ratio : 16:9
Frame rate : 25.000 fps
Color space : YUV
Chroma subsampling : 4:2:0
Bit depth : 8 bits
Scan type : Progressive
Compression mode : Lossy
Bits/(Pixel*Frame) : 0.223
Stream size : 533 MiB (89%)
Writing library : XviD 73
Audio #1
ID : 1
Format : AC-3
Format/Info : Audio Coding 3
Mode extension : CM (complete main)
Format settings, Endianness : Big
Codec ID : 2000
Duration : 46mn 26s
Bit rate mode : Constant
Bit rate : 192 Kbps
Channel(s) : 2 channels
Channel positions : Front: L R
Sampling rate : 48.0 KHz
Bit depth : 16 bits
Compression mode : Lossy
Stream size : 63.8 MiB (11%)
Alignment : Split accross interleaves
Interleave, duration : 40 ms (1.00 video frame)
Interleave, preload duration : 500 ms

Скриншоты

Вне форума [Профиль] [ЛС]
Показать сообщения:    
Ответить на тему

Текущее время: Сегодня 16:59

Часовой пояс: GMT + 3



Вы не можете начинать темы
Вы не можете отвечать на сообщения
Вы не можете редактировать свои сообщения
Вы не можете удалять свои сообщения
Вы не можете голосовать в опросах
Вы не можете прикреплять файлы к сообщениям
Вы не можете скачивать файлы