Сегодня идет свободное скачивание без начисления Download

Бен-Гур / Ben-Hur (Тимур Бекмамбетов) [2016, боевик, драма, приключения, BDRip 720p] DUB | iTunes

Ответить на тему
 
Автор
Сообщение

Theseus ®

Пол:

Стаж: 5 лет 10 месяцев

Сообщений: 1135

Торрент-статистика

Пост 12-Янв-2017 14:06

[Цитировать]

Бен-Гур / Ben-Hur- Страна: США
Жанр: боевик, драма, приключения
Год выпуска: 2016
Продолжительность: 02:04:43
Перевод: Профессиональный (полное дублирование) [iTunes]
Режиссер: Тимур Бекмамбетов-В ролях: Джек Хьюстон (Judah Ben-Hur), Тоби Кеббелл (Messala Severus), Морган Фриман (Ilderim), Родриго Санторо (Jesus), Назанин Бониади (Esther), Айелет Зурер (Naomi Ben-Hur), Йохан Филип Асбек (Pontius Pilate), София Блэк-Д Элиа (Tirzah Ben-Hur), Марван Кензари (Druses), Мойзес Ариас (Dismas)-Описание: История Бен-Гура, потомка знатного иудейского рода, который был предан своим лучшим другом-римлянином. Проведя много лет в рабстве на римских галерах, Бен-Гур в итоге получает возможность вернуться на родину и отомстить обидчику..--Качество: BDRip 720p
Формат: MKV
Видео кодек: x.264
Аудио кодек: AC3/DTS
Видео: MPEG-4 AVC, 1280x536, 8250 Кbit/s, 23.976 fps, 0.502 bit/pixel
Аудио 1 RUS: 48 kHz, AC3 Dolby Digital, 3/2 (L,C,R,l,r) + LFE ch, 384 kbps avg
Аудио 2 ENG: 48 kHz, DTS, 3/2 (L,C,R,l,r) + LFE ch, 1509 kbps avg
Субтитры: Английские-

MediaInfo

Общее
Уникальный идентификатор : 178364411034307030191657533933410813866 (0x862FBC6BF6BA1905BF5780568E1387AA)
Полное имя : F:VideoBen.Hur.2016.DD.BDRip.720p.ExKinoRay.mkv
Формат : Matroska
Версия формата : Version 4 / Version 2
Размер файла : 8,83 Гбайт
Продолжительность : 2 ч. 4 м.
Общий поток : 10,1 Мбит/сек
Название фильма : Ben-Hur.2016 ***селезень***
Дата кодирования : UTC 2017-01-12 05:13:18
Программа кодирования : mkvmerge v8.3.0 ('Over the Horizon') 64bit
Библиотека кодирования : libebml v1.3.1 + libmatroska v1.4.2
Видео
Идентификатор : 1
Формат : AVC
Формат/Информация : Advanced Video Codec
Профиль формата : High@L5.1
Параметр CABAC формата : Да
Параметр ReFrames формата : 12 кадров
Идентификатор кодека : V_MPEG4/ISO/AVC
Продолжительность : 2 ч. 4 м.
Битрейт : 8250 Кбит/сек
Ширина : 1280 пикселей
Высота : 536 пикселей
Соотношение сторон : 2,40:1
Режим частоты кадров : Постоянный
Частота кадров : 23,976 (24000/1001) кадра/сек
Цветовое пространство : YUV
Субдискретизация насыщенности : 4:2:0
Битовая глубина : 8 бит
Тип развёртки : Прогрессивная
Бит/(Пиксели*Кадры) : 0.502
Размер потока : 7,18 Гбайт (81%)
Заголовок : Ben-Hur.2016 ***селезень***
Библиотека кодирования : x264 core 142 r2431+42 c69a006 tMod [8-bit@all X86_64]
Настройки программы : cabac=1 / ref=12 / deblock=1:-3:-3 / analyse=0x3:0x113 / me=umh / subme=11 / psy=1 / fade_compensate=0.00 / psy_rd=1.05:1.05 / mixed_ref=1 / me_range=48 / chroma_me=1 / trellis=2 / 8x8dct=1 / cqm=0 / deadzone=21,11 / fast_pskip=0 / chroma_qp_offset=-4 / threads=16 / lookahead_threads=2 / sliced_threads=0 / nr=0 / decimate=0 / interlaced=0 / bluray_compat=0 / constrained_intra=0 / fgo=0 / bframes=8 / b_pyramid=2 / b_adapt=2 / b_bias=0 / direct=3 / weightb=1 / open_gop=0 / weightp=2 / keyint=240 / keyint_min=23 / scenecut=40 / intra_refresh=0 / rc_lookahead=100 / rc=2pass / mbtree=0 / bitrate=8250 / ratetol=1.0 / qcomp=0.70 / qpmin=0:0:0 / qpmax=69:69:69 / qpstep=4 / cplxblur=20.0 / qblur=0.5 / vbv_maxrate=300000 / vbv_bufsize=300000 / nal_hrd=none / filler=0 / ip_ratio=1.30 / pb_ratio=1.20 / aq=2:0.80 / aq-sensitivity=10.00 / aq-factor=1.00:1.00:1.00 / aq2=0 / aq3=0
Язык : English
Default : Да
Forced : Нет
Цветовой диапазон : Limited
Основные цвета : BT.709
Характеристики трансфера : BT.709
Коэффициенты матрицы : BT.709
Аудио #1
Идентификатор : 2
Формат : AC-3
Формат/Информация : Audio Coding 3
Расширение режима : CM (complete main)
Параметр Endianness формата : Big
Идентификатор кодека : A_AC3
Продолжительность : 2 ч. 4 м.
Вид битрейта : Постоянный
Битрейт : 384 Кбит/сек
Каналы : 6 каналов
Расположение каналов : Front: L C R, Side: L R, LFE
Частота : 48,0 КГц
Частота кадров : 31,250 кадров/сек (1536 spf)
Битовая глубина : 16 бит
Метод сжатия : С потерями
Размер потока : 343 Мбайт (4%)
Заголовок : Dub [iTunes]
Язык : Russian
Default : Да
Forced : Нет
Аудио #2
Идентификатор : 3
Формат : DTS
Формат/Информация : Digital Theater Systems
Режим : 16
Параметр Endianness формата : Big
Идентификатор кодека : A_DTS
Продолжительность : 2 ч. 4 м.
Вид битрейта : Постоянный
Битрейт : 1509 Кбит/сек
Каналы : 6 каналов
Расположение каналов : Front: L C R, Side: L R, LFE
Частота : 48,0 КГц
Частота кадров : 93,750 кадра/сек (512 spf)
Битовая глубина : 24 бит
Метод сжатия : С потерями
Размер потока : 1,31 Гбайт (15%)
Заголовок : Original
Язык : English
Default : Нет
Forced : Нет
Текст #1
Идентификатор : 4
Формат : UTF-8
Идентификатор кодека : S_TEXT/UTF8
Идентификатор кодека/Информация : UTF-8 Plain Text
Продолжительность : 1 ч. 56 м.
Битрейт : 45 бит/сек
Count of elements : 1438
Размер потока : 38,6 Кбайт (0%)
Заголовок : Full
Язык : English
Default : Нет
Forced : Нет
Текст #2
Идентификатор : 5
Формат : UTF-8
Идентификатор кодека : S_TEXT/UTF8
Идентификатор кодека/Информация : UTF-8 Plain Text
Продолжительность : 1 ч. 56 м.
Битрейт : 51 бит/сек
Count of elements : 1644
Размер потока : 44,3 Кбайт (0%)
Заголовок : SDH
Язык : English
Default : Нет
Forced : Нет
Меню
00:00:00.000 : en:00:00:00.000
00:07:03.882 : en:00:07:03.882
00:15:42.942 : en:00:15:42.942
00:19:47.895 : en:00:19:47.895
00:27:25.853 : en:00:27:25.853
00:33:09.362 : en:00:33:09.362
00:41:07.215 : en:00:41:07.215
00:48:20.064 : en:00:48:20.064
00:55:21.652 : en:00:55:21.652
01:05:41.229 : en:01:05:41.229
01:13:15.891 : en:01:13:15.891
01:22:26.900 : en:01:22:26.900
01:31:30.193 : en:01:31:30.193
01:39:55.656 : en:01:39:55.656
01:46:30.801 : en:01:46:30.801
01:54:54.638 : en:01:54:54.638

Трейлер

-     - - -

_________________
Вне форума [Профиль] [ЛС]
Показать сообщения:    
Ответить на тему

Текущее время: Сегодня 18:00

Часовой пояс: GMT + 3



Вы не можете начинать темы
Вы не можете отвечать на сообщения
Вы не можете редактировать свои сообщения
Вы не можете удалять свои сообщения
Вы не можете голосовать в опросах
Вы не можете прикреплять файлы к сообщениям
Вы не можете скачивать файлы