Сегодня идет свободное скачивание без начисления Download

Ты никогда не будешь богаче / You\'ll Never Get Rich (Сидней Ланфилд / Sidney Lanfield) [1941, США, комедия, музыкальный, WEB-DL 1080p] MVO (Светла) + Original Eng + Sub Eng

Ответить на тему
 
Автор
Сообщение

Omen ®

Стаж: 4 года 6 месяцев

Сообщений: 190802

Торрент-статистика

Пост 12-Янв-2017 01:00

[Цитировать]

Ты никогда не будешь богаче / You'll Never Get Rich- Год выпуска: 1941
Страна: США
Жанр: комедия, музыкальный
Продолжительность: 01:28:32
Перевод: Профессиональный (многоголосый закадровый) Светла
Оригинальная аудиодорожка: Английская
Cубтитры: Английские (полные, для слабослышащих)-Режиссер: Сидней Ланфилд / Sidney Lanfield
В ролях: Фред Астер, Рита Хэйуорт, Роберт Бенчли, Джон Хаббард, Оса Мэссен, Фрида Айнескорт, Гинн Уильямс, Доналд МакБрайд-Описание:
Импресарио Мартин Кофтленд, намереваясь приударить за Шейлой, лучшей танцовщицей своей труппы, покупает ей в подарок бриллиантовый браслет. Жене он покупает... чесалку для спины. Увы, он путает подарки и браслет попадает в руки ревнивой жены... Чтобы отвести подозрения от шефа, хореограф Роберт Кертис, завзятый холостяк, объявляет браслет своим и начинает демонстративно ухаживать за Шейлой. Но события принимают такой оборот, что даже уход на службу в армию не спасает Роберта от любовного безумия...-За дорожку спасибо Rusalochka. Отдельное спасибо peterpiano за помощь.
| | Сэмпл-Качество: WEB-DL 1080p (SbR)
Контейнер: MKV
Видео: AVC (x264), 1920x1080 (1.33:1), 23.976 fps, 10000 kbps
Аудио 1: Русский AC3 2.0, 48 kHz, 192 kbps
Аудио 2: Английский AC3 2.0, 48 kHz, 192 kbps

Скриншоты


MI

General
Unique ID : 240759470864718371913428642402447917562 (0xB520966207AC8FFD8C2FAA38211801FA)
Complete name : You'll.Never.Get.Rich.1941.1080p.WEB-DL.DD2.0.H.264-SbR.mkv
Format : Matroska
Format version : Version 2
File size : 6.41 GiB
Duration : 1 h 28 min
Overall bit rate : 10.4 Mb/s
Movie name : You'll Never Get Rich / Ты никогда не будешь богаче (1941) – RuTracker
Encoded date : UTC 2017-01-11 20:56:06
Writing application : mkvmerge v9.7.1 ('Pandemonium') 64bit
Writing library : libebml v1.3.4 + libmatroska v1.4.5
Cover : Yes
Attachments : cover.jpg
Video
ID : 1
Format : AVC
Format/Info : Advanced Video Codec
Format profile : High@L4
Format settings, CABAC : Yes
Format settings, ReFrames : 4 frames
Format settings, GOP : M=4, N=48
Codec ID : V_MPEG4/ISO/AVC
Duration : 1 h 28 min
Bit rate mode : Constant
Bit rate : 10 000 kb/s
Width : 1 920 pixels
Height : 1 080 pixels
Display aspect ratio : 16:9
Frame rate mode : Constant
Frame rate : 23.976 (24000/1001) FPS
Color space : YUV
Chroma subsampling : 4:2:0
Bit depth : 8 bits
Scan type : Progressive
Bits/(Pixel*Frame) : 0.201
Stream size : 6.17 GiB (96%)
Title : You'll.Never.Get.Rich.1941.1080p.WEB-DL.DD2.0.H.264-SbR
Language : English
Default : Yes
Forced : No
Color range : Limited
Color primaries : BT.709
Transfer characteristics : BT.709
Matrix coefficients : BT.709
Audio #1
ID : 2
Format : AC-3
Format/Info : Audio Coding 3
Mode extension : CM (complete main)
Format settings, Endianness : Big
Codec ID : A_AC3
Duration : 1 h 28 min
Bit rate mode : Constant
Bit rate : 192 kb/s
Channel(s) : 2 channels
Channel positions : Front: L R
Sampling rate : 48.0 kHz
Frame rate : 31.250 FPS (1536 spf)
Compression mode : Lossy
Stream size : 122 MiB (2%)
Title : MVO – Светла
Language : Russian
Default : Yes
Forced : No
Audio #2
ID : 3
Format : AC-3
Format/Info : Audio Coding 3
Mode extension : CM (complete main)
Format settings, Endianness : Big
Codec ID : A_AC3
Duration : 1 h 28 min
Bit rate mode : Constant
Bit rate : 192 kb/s
Channel(s) : 2 channels
Channel positions : Front: L R
Sampling rate : 48.0 kHz
Frame rate : 31.250 FPS (1536 spf)
Compression mode : Lossy
Stream size : 122 MiB (2%)
Title : Original
Language : English
Default : No
Forced : No
Text #1
ID : 4
Format : UTF-8
Codec ID : S_TEXT/UTF8
Codec ID/Info : UTF-8 Plain Text
Duration : 1 h 27 min
Bit rate : 74 b/s
Count of elements : 1087
Stream size : 48.1 KiB (0%)
Language : English
Default : No
Forced : No
Text #2
ID : 5
Format : UTF-8
Codec ID : S_TEXT/UTF8
Codec ID/Info : UTF-8 Plain Text
Duration : 1 h 28 min
Bit rate : 80 b/s
Count of elements : 1830
Stream size : 52.0 KiB (0%)
Title : SDH
Language : English
Default : No
Forced : No
Вне форума [Профиль] [ЛС]
Показать сообщения:    
Ответить на тему

Текущее время: Сегодня 19:05

Часовой пояс: GMT + 3



Вы не можете начинать темы
Вы не можете отвечать на сообщения
Вы не можете редактировать свои сообщения
Вы не можете удалять свои сообщения
Вы не можете голосовать в опросах
Вы не можете прикреплять файлы к сообщениям
Вы не можете скачивать файлы