Сегодня идет свободное скачивание без начисления Download

Бариста / Серии: 1-4 из 4 (Александр Касаткин) [2015, Детектив, мелодрама, HDTVRip]

Ответить на тему
 
Автор
Сообщение

Omen ®

Стаж: 4 года 4 месяца

Сообщений: 194441

Торрент-статистика

Пост 12-Янв-2017 01:00

[Цитировать]

Бариста
- Год выпуска: 2015
Производство: Паламеда Продакшн
Жанр: Детектив, мелодрама
Продолжительность: 00:45:00
Субтитры: нет-Режиссёр: Александр Касаткин-В ролях: Полина Стрельникова (Сыркина), Анатолий Лобоцкий, Владимир Мишуков, Вероника Пляшкевич, Андрей Сенькин-Описание: Всё, что Лера умела — это варить непревзойденный кофе. И даже в недорогое сетевое кафе люди приходили попробовать удивительный напиток. Жизнь её текла спокойно и размеренно, пока в кафе не появился респектабельный господин, показавшийся смутно знакомым… Он предложил Лере совсем иную жизнь. Вскоре мужчина погиб в двух шагах от кафе, где работала Лера. И с этого момента её жизнь поменялась — кто-то явно пытается её убить…-Семпл-Релиз от: -Качество: HDTVRip
Формат: AVI
Видео кодек: XviD
Аудио кодек: AC3
Видео: 720x400 (16:9), 25.000 fps, XviD build 73, 1984 Kbps, 0.27 Bits/Pixel
Аудио: 48 kHz, AC3 Dolby Digital, 2 ch, 192 Kbps-Реклама: Нет-

MI

General
Complete name : Downloads\Barista.2015..HDTVRip.Files-x\01.Barista.2015..HDTVRip.Files-x.avi
Format : AVI
Format/Info : Audio Video Interleave
File size : 1.37 GiB
Duration : 1h 29mn
Overall bit rate : 2 186 Kbps
Writing application : VirtualDubMod 1.5.10.2 (build 2542/release)
Writing library : VirtualDubMod build 2542/release
Video #0
ID : 0
Format : MPEG-4 Visual
Format profile : Advanced Simple@L5
Format settings, BVOP : 1
Format settings, QPel : No
Format settings, GMC : No warppoints
Format settings, Matrix : Custom
Codec ID : XVID
Codec ID/Hint : XviD
Duration : 1h 29mn
Bit rate : 1 984 Kbps
Width : 720 pixels
Height : 400 pixels
Display aspect ratio : 16:9
Frame rate : 25.000 fps
Color space : YUV
Chroma subsampling : 4:2:0
Bit depth : 8 bits
Scan type : Progressive
Compression mode : Lossy
Bits/(Pixel*Frame) : 0.276
Stream size : 1.24 GiB (91%)
Writing library : XviD 73
Audio #1
ID : 1
Format : AC-3
Format/Info : Audio Coding 3
Mode extension : CM (complete main)
Format settings, Endianness : Big
Codec ID : 2000
Duration : 1h 29mn
Bit rate mode : Constant
Bit rate : 192 Kbps
Channel(s) : 2 channels
Channel positions : Front: L R
Sampling rate : 48.0 KHz
Bit depth : 16 bits
Compression mode : Lossy
Stream size : 123 MiB (9%)
Alignment : Split accross interleaves
Interleave, duration : 40 ms (1.00 video frame)
Interleave, preload duration : 500 ms

Скриншоты

Вне форума [Профиль] [ЛС]
Показать сообщения:    
Ответить на тему

Текущее время: Сегодня 01:30

Часовой пояс: GMT + 3



Вы не можете начинать темы
Вы не можете отвечать на сообщения
Вы не можете редактировать свои сообщения
Вы не можете удалять свои сообщения
Вы не можете голосовать в опросах
Вы не можете прикреплять файлы к сообщениям
Вы не можете скачивать файлы