Сегодня идет свободное скачивание без начисления Download

Последнее соблазнение / Последний соблазн / The Last Seduction (Джон Дал / John Dahl) [1994, США, триллер, драма, криминал, BDRemux 1080p] MVO (Екатеринбург Арт) + MVO (ТВЦ) + MVO (Настроение Видео) + DVO (Ульпаней Эльром) + Sub Eng + Original Eng

Ответить на тему
 
Автор
Сообщение

Omen ®

Стаж: 4 года 6 месяцев

Сообщений: 190802

Торрент-статистика

Пост 12-Янв-2017 01:00

[Цитировать]

Последнее соблазнение / Последний соблазн / The Last Seduction
Страна: США
Студия: ITC Entertainment Group
Жанр: триллер, драма, криминал
Год выпуска: 1994
Продолжительность: 01:49:54
Перевод: Профессиональный (многоголосый закадровый) - Екатеринбург Арт
Перевод: Профессиональный (многоголосый закадровый) - ТВЦ
Перевод: Профессиональный (многоголосый закадровый) - Настроение Видео
Перевод: Профессиональный (двухголосый закадровый) - Ульпаней Эльром
Cубтитры: английские, немецкие, французские, испанские, португальские, турецкие, сербские, греческие, болгарские, финские, чешские, румынские
Оригинальная аудиодорожка: английский

Режиссер: Джон Дал / John Dahl
В ролях: Линда Фиорентино, Билл Пуллман, Зак Файфер, Питер Берг, Брайан Варади, Дин Норрис, Донна Уилсон, Мик Скриба, Дж.Т. Уолш
Описание: Бриджет хочет иметь все. И сейчас. Цена значения не имеет. Она сбегает с миллионом долларов, принадлежащих кредиторам ее мужа, и прячется в маленьком городке под Нью-Йорком. Встретив там Майка, она склоняет его к страстному роману. Майк еще никогда не встречал женщину, подобную Бриджет. Она умна, шикарна и обворожительна. Она не рассказывает о прошлом и не дает никаких обещаний на будущее. Бриджет посвящает Майка в план, как можно быстро заработать. А тем временем разгневанный муж хочет любой ценой вернуть деньги. Но Бриджет не намерена сдаваться без боя. И, в конце концов, кто-то попадет на кладбище, кто-то — в тюрьму… а кто-то станет очень-очень богатым.--За исходник для раздачи большое спасибо Sergei7721. За дорожку Екатеринбург Арт спасибо Fikaloid, за ТВЦ спасибо Воронеж-1, за их синхронизацию спасибо JUSTKANT. Авторских на фильм я не нашел, хотя точно помню, что или Визгунов или Дохалов этот фильм переводили. Может кто ещё. Если у кого имеются ещё озвучки на этот фильм и кому не жалко, обращайтесь в ЛС. Я их с удовольствием добавлю.--Тип релиза: BDRemux 1080p
Контейнер: MKV
Видео: 1920x1080 (16:9), 24.000 fps, AVC, 24.8Mbps, 0.446 bits/pixel
Аудио: 48 kHz, AC3 Dolby Digital, 2/0 (L,R) ch, ~192 kbps - Екатеринбург Арт
Аудио: 48 kHz, AC3 Dolby Digital, 2/0 (L,R) ch, ~192 kbps - ТВЦ
Аудио: 48 kHz, AC3 Dolby Digital, 3/2 (L,C,R,l,r) + LFE ch, ~448 kbps - Настроение Видео
Аудио: 48 kHz, AC3 Dolby Digital, 2/0 (L,R) ch, ~192 kbps - Ульпаней Эльром
Аудио: 48 kHz, AC3 Dolby Digital, 3/2 (L,C,R,l,r) + LFE ch, ~448 kbps - оригинал
Аудио: 48 kHz, LPCM Audio, 2.0, 1 536 kbps, 16-bit - оригинал
Формат субтитров: softsub (SRT)

Немного о фильме

Культовый эротический триллер Джона Дала «Последнее соблазнение» можно смело назвать вехой в развитии жанра.«Последнее соблазнение» в некоторые моменты гораздо жестче, чем «Основной инстинкт», благодаря героине Линды Фиорентино, Бриджет, манипуляторше, мошеннице и сексуальной агрессорше. Ради поставленной цели она готова убивать и лгать, не испытывая мук совести.
Все окружающие ее мужчины(Билл Пуллман и Питер Берг) нужны ей в качестве расходного материала. От одного ей нужны деньги, от другого высвобождение своих сексуальных демонов. Линда Фиорентино смогла воплотить образ опасной роковой женщины так, что ее героиня и пугает, и обольщает одновременно. Возможно, роль Бриджет лучшая в карьере актрисы.
Линда Флорентина идеально подходит на роль Бриджет. Ее манеры, внешность, даже голос, низкий и с легкой хрипотцой. Хорошо играет Билл Пуллман. Он циничен как всякий житель Нью-Йорка, хорошо понимает свою жену и готов бороться за богатую жизнь. Питер Берг также не подвел, исполняя роль Майка, жертвы в интриге опытной манипуляторши.
В фильме звучит просто чарующая музыка в стиле легкого джаза, создающая в фильме атмосферу неонуара. Музыка иногда даже намекает на последующие события фильма, сюжет в котором развивается непредсказуемо.
Рекомендую данную ленту поклонникам триллеров 90-х годов и просто поклонникам стильного неонуара.

MediaInfo

General
Unique ID : 180879638965192372362308233422216714381 (0x881426BBAE9E51C69DA3626D1309588D)
Complete name : D:\Мои раздачи HD\The.Last.Seduction.1994.BDRemux.mkv
Format : Matroska
Format version : Version 4 / Version 2
File size : 18.9 GiB
Duration : 1h 49mn
Overall bit rate mode : Variable
Overall bit rate : 24.6 Mbps
Encoded date : UTC 2017-01-11 19:11:17
Writing application : mkvmerge v9.5.0 ('Quiet Fire') 64bit
Writing library : libebml v1.3.4 + libmatroska v1.4.5
Video
ID : 1
Format : AVC
Format/Info : Advanced Video Codec
Format profile : High@L4.1
Format settings, CABAC : Yes
Format settings, ReFrames : 4 frames
Format settings, GOP : M=3, N=12
Codec ID : V_MPEG4/ISO/AVC
Duration : 1h 46mn
Bit rate mode : Variable
Bit rate : 22.2 Mbps
Maximum bit rate : 33.0 Mbps
Width : 1 920 pixels
Height : 1 080 pixels
Display aspect ratio : 16:9
Frame rate mode : Constant
Frame rate : 24.000 fps
Standard : NTSC
Color space : YUV
Chroma subsampling : 4:2:0
Bit depth : 8 bits
Scan type : Progressive
Bits/(Pixel*Frame) : 0.446
Stream size : 16.5 GiB (87%)
Title : Video
Language : English
Default : Yes
Forced : No
Color range : Limited
Color primaries : BT.709
Transfer characteristics : BT.709
Matrix coefficients : BT.709
Audio #1
ID : 2
Format : AC-3
Format/Info : Audio Coding 3
Mode extension : CM (complete main)
Format settings, Endianness : Big
Codec ID : A_AC3
Duration : 1h 49mn
Bit rate mode : Constant
Bit rate : 192 Kbps
Channel(s) : 2 channels
Channel positions : Front: L R
Sampling rate : 48.0 KHz
Frame rate : 31.250 fps (1536 spf)
Compression mode : Lossy
Stream size : 151 MiB (1%)
Title : Екатеринбург Арт
Language : Russian
Default : Yes
Forced : No
Audio #2
ID : 3
Format : AC-3
Format/Info : Audio Coding 3
Mode extension : CM (complete main)
Format settings, Endianness : Big
Codec ID : A_AC3
Duration : 1h 49mn
Bit rate mode : Constant
Bit rate : 192 Kbps
Channel(s) : 2 channels
Channel positions : Front: L R
Sampling rate : 48.0 KHz
Frame rate : 31.250 fps (1536 spf)
Compression mode : Lossy
Stream size : 151 MiB (1%)
Title : ТВЦ
Language : Russian
Default : No
Forced : No
Audio #3
ID : 4
Format : AC-3
Format/Info : Audio Coding 3
Mode extension : CM (complete main)
Format settings, Endianness : Big
Codec ID : A_AC3
Duration : 1h 46mn
Bit rate mode : Constant
Bit rate : 448 Kbps
Channel(s) : 6 channels
Channel positions : Front: L C R, Side: L R, LFE
Sampling rate : 48.0 KHz
Frame rate : 31.250 fps (1536 spf)
Compression mode : Lossy
Stream size : 340 MiB (2%)
Title : Настроение Видео
Language : Russian
Default : No
Forced : No
Audio #4
ID : 5
Format : AC-3
Format/Info : Audio Coding 3
Mode extension : CM (complete main)
Format settings, Endianness : Big
Codec ID : A_AC3
Duration : 1h 45mn
Bit rate mode : Constant
Bit rate : 192 Kbps
Channel(s) : 2 channels
Channel positions : Front: L R
Sampling rate : 48.0 KHz
Frame rate : 31.250 fps (1536 spf)
Compression mode : Lossy
Stream size : 145 MiB (1%)
Title : Ульпаней Эльром
Language : Russian
Default : No
Forced : No
Audio #5
ID : 6
Format : AC-3
Format/Info : Audio Coding 3
Mode extension : CM (complete main)
Format settings, Endianness : Big
Codec ID : A_AC3
Duration : 1h 46mn
Bit rate mode : Constant
Bit rate : 640 Kbps
Channel(s) : 6 channels
Channel positions : Front: L C R, Side: L R, LFE
Sampling rate : 48.0 KHz
Frame rate : 31.250 fps (1536 spf)
Compression mode : Lossy
Stream size : 486 MiB (3%)
Title : оригинал 5.1
Language : English
Default : No
Forced : No
Audio #6
ID : 7
Format : PCM
Codec ID : A_PCM/INT/LIT
Duration : 1h 46mn
Bit rate mode : Constant
Bit rate : 1 536 Kbps
Channel(s) : 2 channels
Sampling rate : 48.0 KHz
Frame rate : 32.000 fps (1500 spf)
Bit depth : 16 bits
Stream size : 1.14 GiB (6%)
Title : оригинал LPCM
Language : English
Default : No
Forced : No
Text #1
ID : 8
Format : UTF-8
Codec ID : S_TEXT/UTF8
Codec ID/Info : UTF-8 Plain Text
Duration : 1h 43mn
Bit rate : 55 bps
Count of elements : 1130
Stream size : 41.9 KiB (0%)
Title : Субтитры
Language : English
Default : No
Forced : No
Text #2
ID : 9
Format : UTF-8
Codec ID : S_TEXT/UTF8
Codec ID/Info : UTF-8 Plain Text
Duration : 1h 44mn
Bit rate : 70 bps
Count of elements : 1404
Stream size : 54.5 KiB (0%)
Title : Субтитры
Language : German
Default : No
Forced : No
Text #3
ID : 10
Format : UTF-8
Codec ID : S_TEXT/UTF8
Codec ID/Info : UTF-8 Plain Text
Duration : 1h 44mn
Bit rate : 43 bps
Count of elements : 1139
Stream size : 33.1 KiB (0%)
Title : Субтитры
Language : French
Default : No
Forced : No
Text #4
ID : 11
Format : UTF-8
Codec ID : S_TEXT/UTF8
Codec ID/Info : UTF-8 Plain Text
Duration : 1h 43mn
Bit rate : 56 bps
Count of elements : 1194
Stream size : 43.0 KiB (0%)
Title : Субтитры
Language : Spanish
Default : No
Forced : No
Text #5
ID : 12
Format : UTF-8
Codec ID : S_TEXT/UTF8
Codec ID/Info : UTF-8 Plain Text
Duration : 1h 46mn
Bit rate : 49 bps
Count of elements : 1158
Stream size : 38.8 KiB (0%)
Title : Субтитры
Language : Portuguese
Default : No
Forced : No
Text #6
ID : 13
Format : UTF-8
Codec ID : S_TEXT/UTF8
Codec ID/Info : UTF-8 Plain Text
Duration : 1h 43mn
Bit rate : 57 bps
Count of elements : 903
Stream size : 43.7 KiB (0%)
Title : Субтитры
Language : Turkish
Default : No
Forced : No
Text #7
ID : 14
Format : UTF-8
Codec ID : S_TEXT/UTF8
Codec ID/Info : UTF-8 Plain Text
Duration : 1h 44mn
Bit rate : 57 bps
Count of elements : 1127
Stream size : 44.0 KiB (0%)
Title : Субтитры
Language : Czech
Default : No
Forced : No
Text #8
ID : 15
Format : UTF-8
Codec ID : S_TEXT/UTF8
Codec ID/Info : UTF-8 Plain Text
Duration : 1h 43mn
Bit rate : 47 bps
Count of elements : 1138
Stream size : 35.7 KiB (0%)
Title : Субтитры
Language : Romanian
Default : No
Forced : No
Text #9
ID : 16
Format : UTF-8
Codec ID : S_TEXT/UTF8
Codec ID/Info : UTF-8 Plain Text
Duration : 1h 43mn
Bit rate : 47 bps
Count of elements : 1334
Stream size : 36.1 KiB (0%)
Title : Субтитры
Language : Serbian
Default : No
Forced : No
Text #10
ID : 17
Format : UTF-8
Codec ID : S_TEXT/UTF8
Codec ID/Info : UTF-8 Plain Text
Duration : 1h 44mn
Bit rate : 84 bps
Count of elements : 1149
Stream size : 65.1 KiB (0%)
Title : Субтитры
Language : Greek
Default : No
Forced : No
Text #11
ID : 18
Format : UTF-8
Codec ID : S_TEXT/UTF8
Codec ID/Info : UTF-8 Plain Text
Duration : 1h 46mn
Bit rate : 46 bps
Count of elements : 805
Stream size : 36.1 KiB (0%)
Title : Субтитры
Language : Finnish
Default : No
Forced : No
Text #12
ID : 19
Format : UTF-8
Codec ID : S_TEXT/UTF8
Codec ID/Info : UTF-8 Plain Text
Duration : 1h 45mn
Bit rate : 83 bps
Count of elements : 1149
Stream size : 64.5 KiB (0%)
Title : Субтитры
Language : Bulgarian
Default : No
Forced : No

Скриншоты

--
Вне форума [Профиль] [ЛС]
Показать сообщения:    
Ответить на тему

Текущее время: Сегодня 08:01

Часовой пояс: GMT + 3



Вы не можете начинать темы
Вы не можете отвечать на сообщения
Вы не можете редактировать свои сообщения
Вы не можете удалять свои сообщения
Вы не можете голосовать в опросах
Вы не можете прикреплять файлы к сообщениям
Вы не можете скачивать файлы