Сегодня идет свободное скачивание без начисления Download

Освободите Вилли / Free Willy (Саймон Уинсер / Simon Wincer) [1993, США, Франция, драма, приключения, детский, семейный, BDRip 1080p] Dub (Гемини-Фильм) + Dub (Пифагор) + MVO (ОРТ) + DVO (R5) + DVO + Sub Rus, Eng + Original Eng

Ответить на тему
 
Автор
Сообщение

Omen ®

Стаж: 4 года 3 месяца

Сообщений: 194441

Торрент-статистика

Пост 12-Янв-2017 01:00

[Цитировать]

Освободите Вилли / Free Willy
Страна: США, Франция
Студия: Warner Brothers Pictures, Regency Enterprises
Жанр: драма, приключения, детский, семейный
Год выпуска: 1993
Продолжительность: 01:51:43
Перевод: Профессиональный (дублированный) - Гемини-Фильм
Перевод 2: Профессиональный (дублированный) - Пифагор
Перевод 3: Профессиональный (многоголосый закадровый) - ОРТ
Перевод 4: Профессиональный (двухголосый закадровый) - R5
Перевод 5: Профессиональный (двухголосый закадровый)
Перевод 6: субтитры (полные + форсированные), английские (полные, SDH)
Cубтитры: русские
Оригинальная аудиодорожка: английский
Режиссер: Саймон Уинсер / Simon Wincer
В ролях: Джейсон Джеймс Рихтер, Лори Петти, Джейн Эткинсон, Аугуст Шелленберг, Майкл Мэдсен, Майкл Айронсайд, Ричард Рили, Майкелти Уильямсон, Майкл Бэколл, Даниэль Харрис, Айзиа Мэлоун, Бетси Толл, Боб Сэмпл, Меррилин Джонс, Мики Гейнс, Джастин Р. Холл, Роберт М. Дуке, Сэм Самсон, Уиллис Ван Дьюсен, Том Ласвелл, Мултри Паттен, Эд Мерфи, Джим Майклс, Симос Каливас, Эрик Л. Нельсон
Описание: Косатка, или как еще называют это огромное морское животное, кит-убийца, был разлучен со своей семьей. Люди доставили его в парк развлечений, дали имя Вилли и ожидали, что смогут заработать на его представлениях кучи денег. В то же время зритель знакомится с мальчишкой Джесси, сбежавшим из дома и добывающим хлеб насущный воровством и попрошайничеством. Джесси находит новых, добрых родителей и ему нужно стереть всякие не очень приличные надписи, которые он нарисовал спреем в парке. И там-то и происходит встреча трудного подростка и кита-убийцы. Они полюбили друг друга с первого взгляда. А злой владелец парка развлечений по имени Диал уже понял, что зря переводит деньги на непослушного Вилли, и хочет его убить, чтобы получить страховку.
Сэмпл: https://yadi.sk/i/MGLdxbmM38VLBR
Тип релиза: BDRip 1080p
Контейнер: MKV
Видео: 20275 Кбит/сек, 1920*800 (2,40:1), 23,976 кадра/сек, AVC
Аудио: Русский, 192 Кбит/сек, 48,0 КГц, 2 канала, AC-3 - Гемини-Фильм
Аудио 2: Русский, 192 Кбит/сек, 48,0 КГц, 2 канала, AC-3 - Пифагор
Аудио 3: Русский, 192 Кбит/сек, 48,0 КГц, 2 канала, AC-3 - ОРТ
Аудио 4: Русский, 384 Кбит/сек, 48,0 КГц, 6 каналов, AC-3 - R5
Аудио 5: Русский, 192 Кбит/сек, 48,0 КГц, 2 канала, AC-3
Аудио 6: Английский, 640 Кбит/сек, 48,0 КГц, 16 бит, 6 каналов, AC-3
Формат субтитров: UTF

MediaInfo

ОбщееУникальный идентификатор : 177444538104066208063218436174740742441 (0x857E932F48E68BC6B195FD3A7F206129)Полное имя : Q:\MONAR\Видео\Художественные фильмы\Зарубежное кино\Освободите Вилли (1993).mkvФормат : MatroskaВерсия формата : Version 4 / Version 2Размер файла : 16,8 ГбайтПродолжительность : 1 ч. 51 м.Общий поток : 21,6 Мбит/секНазвание фильма : Free Willy (1993)Дата кодирования : UTC 2017-01-11 18:36:03Программа кодирования : mkvmerge v9.6.0 ('Slave To Your Mind') 64bitБиблиотека кодирования : libebml v1.3.4 + libmatroska v1.4.5
ВидеоИдентификатор : 1Формат : AVCФормат/Информация : Advanced Video CodecПрофиль формата : High@L4.1Параметр CABAC формата : ДаПараметр ReFrames формата : 5 кадровИдентификатор кодека : V_MPEG4/ISO/AVCПродолжительность : 1 ч. 51 м.Битрейт : 19,8 Мбит/секШирина : 1920 пикселейВысота : 800 пикселейСоотношение сторон : 2,40:1Режим частоты кадров : ПостоянныйЧастота кадров : 23,976 (24000/1001) кадра/секЦветовое пространство : YUVСубдискретизация насыщенности : 4:2:0Битовая глубина : 8 битТип развёртки : ПрогрессивнаяБит/(Пиксели*Кадры) : 0.537Размер потока : 15,4 Гбайт (92%)Заголовок : Free Willy (1993)Библиотека кодирования : x264 core 148 r2579 73ae2d1Настройки программы : cabac=1 / ref=5 / deblock=1:-3:-3 / analyse=0x3:0x133 / me=umh / subme=10 / psy=1 / psy_rd=1.05:0.00 / mixed_ref=1 / me_range=16 / chroma_me=1 / trellis=2 / 8x8dct=1 / cqm=0 / deadzone=21,11 / fast_pskip=0 / chroma_qp_offset=-2 / threads=12 / lookahead_threads=2 / sliced_threads=0 / nr=0 / decimate=0 / interlaced=0 / bluray_compat=0 / constrained_intra=0 / bframes=9 / b_pyramid=2 / b_adapt=2 / b_bias=0 / direct=3 / weightb=1 / open_gop=0 / weightp=2 / keyint=250 / keyint_min=23 / scenecut=40 / intra_refresh=0 / rc=crf / mbtree=0 / crf=16.5 / qcomp=0.60 / qpmin=0 / qpmax=69 / qpstep=4 / ip_ratio=1.40 / pb_ratio=1.30 / aq=3:0.70Язык : EnglishDefault : ДаForced : Нет
Аудио #1Идентификатор : 2Формат : AC-3Формат/Информация : Audio Coding 3Расширение режима : CM (complete main)Параметр Endianness формата : BigИдентификатор кодека : A_AC3Продолжительность : 1 ч. 51 м.Вид битрейта : ПостоянныйБитрейт : 192 Кбит/секКаналы : 2 каналаРасположение каналов : Front: L RЧастота : 48,0 КГцЧастота кадров : 31,250 кадров/сек (1536 spf)Битовая глубина : 16 битМетод сжатия : С потерямиРазмер потока : 153 Мбайт (1%)Заголовок : GeminiЯзык : RussianDefault : ДаForced : Нет
Аудио #2Идентификатор : 3Формат : AC-3Формат/Информация : Audio Coding 3Расширение режима : CM (complete main)Параметр Endianness формата : BigИдентификатор кодека : A_AC3Продолжительность : 1 ч. 51 м.Вид битрейта : ПостоянныйБитрейт : 192 Кбит/секКаналы : 2 каналаРасположение каналов : Front: L RЧастота : 48,0 КГцЧастота кадров : 31,250 кадров/сек (1536 spf)Битовая глубина : 16 битМетод сжатия : С потерямиРазмер потока : 153 Мбайт (1%)Заголовок : PifagorЯзык : RussianDefault : НетForced : Нет
Аудио #3Идентификатор : 4Формат : AC-3Формат/Информация : Audio Coding 3Расширение режима : CM (complete main)Параметр Endianness формата : BigИдентификатор кодека : A_AC3Продолжительность : 1 ч. 51 м.Вид битрейта : ПостоянныйБитрейт : 192 Кбит/секКаналы : 2 каналаРасположение каналов : Front: L RЧастота : 48,0 КГцЧастота кадров : 31,250 кадров/сек (1536 spf)Битовая глубина : 16 битМетод сжатия : С потерямиРазмер потока : 153 Мбайт (1%)Заголовок : ORTЯзык : RussianDefault : НетForced : Нет
Аудио #4Идентификатор : 5Формат : AC-3Формат/Информация : Audio Coding 3Расширение режима : CM (complete main)Параметр Endianness формата : BigИдентификатор кодека : A_AC3Продолжительность : 1 ч. 51 м.Вид битрейта : ПостоянныйБитрейт : 384 Кбит/секКаналы : 6 каналовРасположение каналов : Front: L C R, Side: L R, LFEЧастота : 48,0 КГцЧастота кадров : 31,250 кадров/сек (1536 spf)Битовая глубина : 16 битМетод сжатия : С потерямиРазмер потока : 307 Мбайт (2%)Заголовок : R5Язык : RussianDefault : НетForced : Нет
Аудио #5Идентификатор : 6Формат : AC-3Формат/Информация : Audio Coding 3Расширение режима : CM (complete main)Параметр Endianness формата : BigИдентификатор кодека : A_AC3Продолжительность : 1 ч. 51 м.Вид битрейта : ПостоянныйБитрейт : 192 Кбит/секКаналы : 2 каналаРасположение каналов : Front: L RЧастота : 48,0 КГцЧастота кадров : 31,250 кадров/сек (1536 spf)Битовая глубина : 16 битМетод сжатия : С потерямиРазмер потока : 153 Мбайт (1%)Заголовок : DVOЯзык : RussianDefault : НетForced : Нет
Аудио #6Идентификатор : 7Формат : AC-3Формат/Информация : Audio Coding 3Расширение режима : CM (complete main)Параметр Endianness формата : BigИдентификатор кодека : A_AC3Продолжительность : 1 ч. 51 м.Вид битрейта : ПостоянныйБитрейт : 640 Кбит/секКаналы : 6 каналовРасположение каналов : Front: L C R, Side: L R, LFEЧастота : 48,0 КГцЧастота кадров : 31,250 кадров/сек (1536 spf)Битовая глубина : 16 битМетод сжатия : С потерямиРазмер потока : 511 Мбайт (3%)Заголовок : originalЯзык : EnglishDefault : НетForced : Нет
Текст #1Идентификатор : 8Формат : UTF-8Идентификатор кодека : S_TEXT/UTF8Идентификатор кодека/Информация : UTF-8 Plain TextПродолжительность : 1 ч. 40 м.Битрейт : 0 бит/секCount of elements : 9Размер потока : 440 байт (0%)Язык : RussianDefault : ДаForced : Нет
Текст #2Идентификатор : 9Формат : UTF-8Идентификатор кодека : S_TEXT/UTF8Идентификатор кодека/Информация : UTF-8 Plain TextПродолжительность : 1 ч. 43 м.Битрейт : 66 бит/секCount of elements : 956Размер потока : 50,6 Кбайт (0%)Язык : RussianDefault : НетForced : Нет
Текст #3Идентификатор : 10Формат : UTF-8Идентификатор кодека : S_TEXT/UTF8Идентификатор кодека/Информация : UTF-8 Plain TextПродолжительность : 1 ч. 42 м.Битрейт : 39 бит/секCount of elements : 940Размер потока : 29,3 Кбайт (0%)Язык : EnglishDefault : НетForced : Нет
Текст #4Идентификатор : 11Формат : UTF-8Идентификатор кодека : S_TEXT/UTF8Идентификатор кодека/Информация : UTF-8 Plain TextПродолжительность : 1 ч. 51 м.Битрейт : 48 бит/секCount of elements : 1717Размер потока : 39,6 Кбайт (0%)Язык : EnglishDefault : НетForced : Нет
Меню00:00:00.000 : en:00:00:0000:11:24.016 : en:00:11:2400:19:44.516 : en:00:19:4400:29:41.779 : en:00:29:4100:40:16.080 : en:00:40:1600:51:36.843 : en:00:51:3601:00:26.331 : en:01:00:2601:12:47.029 : en:01:12:4701:20:19.773 : en:01:20:1901:29:07.550 : en:01:29:0701:40:14.508 : en:01:40:1401:45:56.350 : en:01:45:56

Скриншоты

Вне форума [Профиль] [ЛС]
Показать сообщения:    
Ответить на тему

Текущее время: Сегодня 11:22

Часовой пояс: GMT + 3



Вы не можете начинать темы
Вы не можете отвечать на сообщения
Вы не можете редактировать свои сообщения
Вы не можете удалять свои сообщения
Вы не можете голосовать в опросах
Вы не можете прикреплять файлы к сообщениям
Вы не можете скачивать файлы