Сегодня идет свободное скачивание без начисления Download

(OST) Уличный боец 2 / Street Fighter II: The Animated Movie (Street Fighter II MOVIE Original Soundtrack) - 1994, FLAC (tracks+.cue), lossless

Ответить на тему
 
Автор
Сообщение

Omen ®

Стаж: 5 лет 1 месяц

Сообщений: 190529

Торрент-статистика

Пост 12-Янв-2017 01:00

[Цитировать]

Уличный боец 2 / Street Fighter II: The Animated Movie
Название альбома: Street Fighter II MOVIE Original Soundtrack
Жанр: Stage & Screen
Композиторы: Yuji Toriyama, Alpha-Lyla, Tetsuya Komuro, Capcom Sound Team
Носитель: CD
Год выпуска: 1994
Издатель (лейбл): Sony Records
Номер по каталогу: SRCL-2937
Страна: Япония
Аудио кодек: FLAC (*.flac)
Тип рипа: tracks+.cue
Битрейт аудио: lossless
Продолжительность: 00:59:44
Наличие сканов в содержимом раздачи: нет
Источник (релизер): Apollo.rip (capow)
Треклист:
01. Fighting Street (4:44)
02. Plot (5:08)
03. CRY (5:25)
04. Enter VEGA (4:41)
05. Love and Kindness and Strong Heart (4:21)
06. Battle-Blanka & Zangief (4:46)
07. Break!! (3:50)
08. Mission (4:15)
09. Grow Enraged When Injured (4:29)
10. Assassination (4:44)
11. Farewell-Ryu & Ken (4:27)
12. GooD-LucK (6:45)
13. Bonus Track -A Riddle/GOUKI theme- (2:07)

Лог создания рипа

Exact Audio Copy V0.99 prebeta 5 from 4. May 2009
EAC extraction logfile from 12. September 2009, 4:43
Street Fighter II / Original Soundtrack [SRCL-2937]
Used drive : PLEXTOR CD-R PX-W4012A Adapter: 0 ID: 0
Read mode : SecureUtilize accurate stream : YesDefeat audio cache : YesMake use of C2 pointers : No
Read offset correction : 98Overread into Lead-In and Lead-Out : NoFill up missing offset samples with silence : YesDelete leading and trailing silent blocks : NoNull samples used in CRC calculations : YesUsed interface : Native Win32 interface for Win NT & 2000Gap handling : Appended to previous track
Used output format : User Defined EncoderSelected bitrate : 1024 kBit/sQuality : HighAdd ID3 tag : NoCommand line compressor : C:\Program Files\Exact Audio Copy\Flac\flac.exeAdditional command line options : -V -8 -T "artist=%a" -T "title=%t" -T "album=%g" -T "date=%y" -T "tracknumber=%n" -T "genre=%m" %s
TOC of the extracted CD
Track | Start | Length | Start sector | End sector --------------------------------------------------------- 1 | 0:00.00 | 4:44.37 | 0 | 21336 2 | 4:44.37 | 5:08.18 | 21337 | 44454 3 | 9:52.55 | 5:24.62 | 44455 | 68816 4 | 15:17.42 | 4:40.63 | 68817 | 89879 5 | 19:58.30 | 4:21.32 | 89880 | 109486 6 | 24:19.62 | 4:46.25 | 109487 | 130961 7 | 29:06.12 | 3:50.00 | 130962 | 148211 8 | 32:56.12 | 4:15.05 | 148212 | 167341 9 | 37:11.17 | 4:28.70 | 167342 | 187511 10 | 41:40.12 | 4:44.30 | 187512 | 208841 11 | 46:24.42 | 4:28.20 | 208842 | 228961 12 | 50:52.62 | 6:44.70 | 228962 | 259331 13 | 57:37.57 | 2:07.33 | 259332 | 268889
Track 1
Filename D:\[EAC]\Street Fighter II - Original Soundtrack [SRCL-2937] [FLAC]\01 - Fighting Street.wav
Pre-gap length 0:00:02.00
Peak level 100.0 % Track quality 100.0 % Test CRC 2C9BD028 Copy CRC 2C9BD028 Accurately ripped (confidence 2) [5CCF2E06] Copy OK
Track 2
Filename D:\[EAC]\Street Fighter II - Original Soundtrack [SRCL-2937] [FLAC]\02 - Plot.wav
Peak level 98.9 % Track quality 100.0 % Test CRC 1F141787 Copy CRC 1F141787 Accurately ripped (confidence 2) [4F460AD0] Copy OK
Track 3
Filename D:\[EAC]\Street Fighter II - Original Soundtrack [SRCL-2937] [FLAC]\03 - CRY.wav
Peak level 71.0 % Track quality 100.0 % Test CRC 76E6A652 Copy CRC 76E6A652 Accurately ripped (confidence 2) [D3C114AD] Copy OK
Track 4
Filename D:\[EAC]\Street Fighter II - Original Soundtrack [SRCL-2937] [FLAC]\04 - Enter VEGA.wav
Peak level 85.5 % Track quality 100.0 % Test CRC A3CD3C20 Copy CRC A3CD3C20 Accurately ripped (confidence 2) [22F6E217] Copy OK
Track 5
Filename D:\[EAC]\Street Fighter II - Original Soundtrack [SRCL-2937] [FLAC]\05 - Love and Kindness and Strong Heart.wav
Peak level 76.4 % Track quality 100.0 % Test CRC E8F71EC1 Copy CRC E8F71EC1 Accurately ripped (confidence 2) [2FD2AAD4] Copy OK
Track 6
Filename D:\[EAC]\Street Fighter II - Original Soundtrack [SRCL-2937] [FLAC]\06 - Battle-Blanka & Zangief.wav
Peak level 100.0 % Track quality 100.0 % Test CRC CE2D93CA Copy CRC CE2D93CA Accurately ripped (confidence 2) [73299572] Copy OK
Track 7
Filename D:\[EAC]\Street Fighter II - Original Soundtrack [SRCL-2937] [FLAC]\07 - Break !!.wav
Peak level 100.0 % Track quality 100.0 % Test CRC E6659587 Copy CRC E6659587 Accurately ripped (confidence 2) [D9674AE5] Copy OK
Track 8
Filename D:\[EAC]\Street Fighter II - Original Soundtrack [SRCL-2937] [FLAC]\08 - Mission.wav
Peak level 96.3 % Track quality 100.0 % Test CRC 1ED256B1 Copy CRC 1ED256B1 Accurately ripped (confidence 2) [C3303BF8] Copy OK
Track 9
Filename D:\[EAC]\Street Fighter II - Original Soundtrack [SRCL-2937] [FLAC]\09 - Grow Enraged When Injured.wav
Peak level 100.0 % Track quality 100.0 % Test CRC 1458AC72 Copy CRC 1458AC72 Accurately ripped (confidence 2) [C276676C] Copy OK
Track 10
Filename D:\[EAC]\Street Fighter II - Original Soundtrack [SRCL-2937] [FLAC]\10 - Assassination.wav
Peak level 100.0 % Track quality 100.0 % Test CRC A53F66D2 Copy CRC A53F66D2 Accurately ripped (confidence 2) [3E13F62C] Copy OK
Track 11
Filename D:\[EAC]\Street Fighter II - Original Soundtrack [SRCL-2937] [FLAC]\11 - Farewell - Ryu & Ken.wav
Peak level 56.7 % Track quality 100.0 % Test CRC 6B648A3E Copy CRC 6B648A3E Accurately ripped (confidence 2) [50B6D635] Copy OK
Track 12
Filename D:\[EAC]\Street Fighter II - Original Soundtrack [SRCL-2937] [FLAC]\12 - GooD-LucK.wav
Pre-gap length 0:00:01.46
Peak level 84.1 % Track quality 100.0 % Test CRC BAC8B6A6 Copy CRC BAC8B6A6 Accurately ripped (confidence 2) [CE55A044] Copy OK
Track 13
Filename D:\[EAC]\Street Fighter II - Original Soundtrack [SRCL-2937] [FLAC]\13 - Bonus Track - A Riddle (GOUKI theme).wav
Peak level 55.1 % Track quality 100.0 % Test CRC E7194E7F Copy CRC E7194E7F Accurately ripped (confidence 2) [244C062B] Copy OK
All tracks accurately ripped
No errors occurred
End of status report

Содержание индексной карты (.CUE)

REM GENRE Soundtrack
REM DATE 1994
REM DISCID BE0E010D
REM COMMENT "ExactAudioCopy v0.99pb5"
FILE "01 - Fighting Street.wav" WAVE
TRACK 01 AUDIO
INDEX 01 00:00:00
FILE "02 - Plot.wav" WAVE
TRACK 02 AUDIO
INDEX 01 00:00:00
FILE "03 - CRY.wav" WAVE
TRACK 03 AUDIO
INDEX 01 00:00:00
FILE "04 - Enter VEGA.wav" WAVE
TRACK 04 AUDIO
INDEX 01 00:00:00
FILE "05 - Love and Kindness and Strong Heart.wav" WAVE
TRACK 05 AUDIO
INDEX 01 00:00:00
FILE "06 - Battle-Blanka & Zangief.wav" WAVE
TRACK 06 AUDIO
INDEX 01 00:00:00
FILE "07 - Break !!.wav" WAVE
TRACK 07 AUDIO
INDEX 01 00:00:00
FILE "08 - Mission.wav" WAVE
TRACK 08 AUDIO
INDEX 01 00:00:00
FILE "09 - Grow Enraged When Injured.wav" WAVE
TRACK 09 AUDIO
INDEX 01 00:00:00
FILE "10 - Assassination.wav" WAVE
TRACK 10 AUDIO
INDEX 01 00:00:00
FILE "11 - Farewell - Ryu & Ken.wav" WAVE
TRACK 11 AUDIO
INDEX 01 00:00:00
TRACK 12 AUDIO
INDEX 00 04:26:60
FILE "12 - GooD-LucK.wav" WAVE
INDEX 01 00:00:00
FILE "13 - Bonus Track - A Riddle (GOUKI theme).wav" WAVE
TRACK 13 AUDIO
INDEX 01 00:00:00

Лог проверки качества

foobar2000 1.3.14 / Dynamic Range Meter 1.1.1log date: 2017-01-11 21:54:22
--------------------------------------------------------------------------------Analyzed: Alpha-Lyla / Street Fighter II MOVIE Original Soundtrack (1-2) Big Life / Street Fighter II MOVIE Original Soundtrack (3) Ryoko Shinohara & Tetsuya Komuro / Street Fighter II MOVIE Original Soundtrack (4-5) Syun Nishigaki / Street Fighter II MOVIE Original Soundtrack (6) Tetsuya Komuro / Street Fighter II MOVIE Original Soundtrack (7-13)--------------------------------------------------------------------------------
DR Peak RMS Duration Track--------------------------------------------------------------------------------DR12 0.00 dB -13.66 dB 3:50 07-Break!!DR11 0.00 dB -13.91 dB 4:29 09-Grow Enraged When InjuredDR12 -2.96 dB -16.99 dB 5:25 03-CRYDR13 -2.34 dB -16.18 dB 4:21 05-Love and Kindness and Strong HeartDR11 -1.50 dB -14.85 dB 6:45 12-GooD-LucKDR12 -5.17 dB -19.01 dB 2:07 13-Bonus Track -A Riddle/GOUKI theme-DR13 0.00 dB -14.27 dB 4:44 01-Fighting StreetDR13 -0.09 dB -16.89 dB 5:08 02-PlotDR11 -1.35 dB -14.99 dB 4:41 04-Enter VEGADR14 0.00 dB -15.47 dB 4:46 06-Battle-Blanka & ZangiefDR12 -0.32 dB -15.96 dB 4:15 08-MissionDR13 0.00 dB -14.46 dB 4:44 10-AssassinationDR13 -4.92 dB -20.22 dB 4:28 11-Farewell-Ryu & Ken--------------------------------------------------------------------------------
Number of tracks: 13Official DR value: DR12
Samplerate: 44100 HzChannels: 2Bits per sample: 16Bitrate: 725 kbpsCodec: FLAC================================================================================

Скриншоты спектра частот

Доп. информация

Альбом на Discogs и VGMdb
Раздача будет обновлена, если найдутся второй диск и сканы к первому.
Вне форума [Профиль] [ЛС]
Показать сообщения:    
Ответить на тему

Текущее время: Сегодня 02:26

Часовой пояс: GMT + 3



Вы не можете начинать темы
Вы не можете отвечать на сообщения
Вы не можете редактировать свои сообщения
Вы не можете удалять свои сообщения
Вы не можете голосовать в опросах
Вы не можете прикреплять файлы к сообщениям
Вы не можете скачивать файлы