Сегодня идет свободное скачивание без начисления Download

Ангел-истребитель / Ангел истребления / El ángel exterminador / The Exterminating Angel (Луис Бунюэль / Luis Bunuel) [1962, Мексика, драма, BDRip 720p] [Criterion #459] 2x MVO (Cinema Prestige, Культура) + Original Spa + Sub (Rus, Eng)

Ответить на тему
 
Автор
Сообщение

Omen ®

Стаж: 4 года 11 месяцев

Сообщений: 190621

Торрент-статистика

Пост 12-Янв-2017 01:00

[Цитировать]

Ангел-истребитель / Ангел истребления / El ángel exterminador- Год выпуска: 1962
Страна: Мексика
Жанр: драма
Продолжительность: 01:33:25
Перевод 1: Профессиональный (многоголосый закадровый) Cinema Prestige / TV21
Перевод 2: Профессиональный (многоголосый закадровый) ГТРК "Культура"
Оригинальная аудиодорожка: Испанская
Cубтитры: Русские (Cinema Prestige), английские-Режиссер: Луис Бунюэль / Luis Bunuel
В ролях: Сильвия Пиналь, Энрике Рамбаль, Клаудио Брук, Хосе Бавьера, Аугусто Бенедико, Жаклин Андере-Описание:
После роскошного званого ужина гости вдруг обнаруживают, что — в силу каких-то таинственных причин — не могут выйти из столовой. Проходит день, другой, и множества тщательно выстроенных фасадов и поз — как не бывало. Исчезают без следа понятия о приличиях, обусловленных положением в обществе, люди опускаются до примитивного животного состояния…-За русские дорожки спасибо petelin и sergtor09.
| | Сэмпл-Качество: BDRip 720p (mfcorrea)
Контейнер: MKV
Видео: AVC (x264), 960x720 (1.33:1), 23.976 fps, 5800 kbps
Аудио 1: Русский AC3 2.0, 48 kHz, 192 kbps — Cinema Prestige / TV21
Аудио 2: Русский AC3 2.0, 48 kHz, 192 kbps — ГТРК "Культура"
Аудио 3: Испанский FLAC 1.0, 48 kHz, 528 kbps

Скриншоты


MI

General
Unique ID : 239803801024049800948949355233137035445 (0xB4688838D201E12BB3A81E9F601A88B5)
Complete name : The Exterminating Angel.1962.720p.BluRay.AVC-mfcorrea.mkv
Format : Matroska
Format version : Version 2
File size : 4.38 GiB
Duration : 1 h 33 min
Overall bit rate mode : Variable
Overall bit rate : 6 715 kb/s
Movie name : El ángel exterminador / Ангел-истребитель (1962) – RuTracker
Encoded date : UTC 2017-01-11 15:49:28
Writing application : mkvmerge v9.7.1 ('Pandemonium') 64bit
Writing library : libebml v1.3.4 + libmatroska v1.4.5
Cover : Yes
Attachments : cover.jpg
Video
ID : 1
Format : AVC
Format/Info : Advanced Video Codec
Format profile : High@L4.1
Format settings, CABAC : Yes
Format settings, ReFrames : 9 frames
Codec ID : V_MPEG4/ISO/AVC
Duration : 1 h 33 min
Bit rate : 5 800 kb/s
Width : 960 pixels
Height : 720 pixels
Display aspect ratio : 4:3
Frame rate mode : Constant
Frame rate : 23.976 (24000/1001) FPS
Color space : YUV
Chroma subsampling : 4:2:0
Bit depth : 8 bits
Scan type : Progressive
Bits/(Pixel*Frame) : 0.350
Stream size : 3.79 GiB (86%)
Title : The Exterminating Angel.1962.720p.BluRay.AVC-mfcorrea
Writing library : x264 core 142 r2479 dd79a61
Encoding settings : cabac=1 / ref=9 / deblock=1:-3:-3 / analyse=0x3:0x133 / me=umh / subme=9 / psy=1 / psy_rd=1.00:0.00 / mixed_ref=1 / me_range=35 / chroma_me=1 / trellis=2 / 8x8dct=1 / cqm=0 / deadzone=21,11 / fast_pskip=0 / chroma_qp_offset=-2 / threads=18 / lookahead_threads=3 / sliced_threads=0 / nr=0 / decimate=1 / interlaced=0 / bluray_compat=0 / constrained_intra=0 / bframes=8 / b_pyramid=2 / b_adapt=2 / b_bias=0 / direct=3 / weightb=1 / open_gop=0 / weightp=2 / keyint=240 / keyint_min=24 / scenecut=40 / intra_refresh=0 / rc_lookahead=90 / rc=2pass / mbtree=1 / bitrate=5800 / ratetol=1.0 / qcomp=0.60 / qpmin=0 / qpmax=69 / qpstep=4 / cplxblur=20.0 / qblur=0.5 / vbv_maxrate=62500 / vbv_bufsize=78125 / nal_hrd=none / filler=0 / ip_ratio=1.40 / aq=1:1.00
Language : Spanish
Default : Yes
Forced : No
Color range : Limited
Color primaries : BT.709
Transfer characteristics : BT.709
Matrix coefficients : BT.709
Audio #1
ID : 2
Format : AC-3
Format/Info : Audio Coding 3
Mode extension : CM (complete main)
Format settings, Endianness : Big
Codec ID : A_AC3
Duration : 1 h 33 min
Bit rate mode : Constant
Bit rate : 192 kb/s
Channel(s) : 2 channels
Channel positions : Front: L R
Sampling rate : 48.0 kHz
Frame rate : 31.250 FPS (1536 spf)
Compression mode : Lossy
Stream size : 128 MiB (3%)
Title : MVO – Cinema Prestige / TV21
Language : Russian
Default : Yes
Forced : No
Audio #2
ID : 3
Format : AC-3
Format/Info : Audio Coding 3
Mode extension : CM (complete main)
Format settings, Endianness : Big
Codec ID : A_AC3
Duration : 1 h 33 min
Bit rate mode : Constant
Bit rate : 192 kb/s
Channel(s) : 2 channels
Channel positions : Front: L R
Sampling rate : 48.0 kHz
Frame rate : 31.250 FPS (1536 spf)
Compression mode : Lossy
Stream size : 128 MiB (3%)
Title : MVO – ГТРК "Культура"
Language : Russian
Default : No
Forced : No
Audio #3
ID : 4
Format : FLAC
Format/Info : Free Lossless Audio Codec
Codec ID : A_FLAC
Duration : 1 h 33 min
Bit rate mode : Variable
Bit rate : 528 kb/s
Channel(s) : 1 channel
Channel positions : Front: C
Sampling rate : 48.0 kHz
Frame rate : 11.719 FPS (4096 spf)
Bit depth : 24 bits
Stream size : 353 MiB (8%)
Title : Original
Writing library : libFLAC 1.3.1 (UTC 2014-11-25)
Language : Spanish
Default : No
Forced : No
Text #1
ID : 5
Format : UTF-8
Codec ID : S_TEXT/UTF8
Codec ID/Info : UTF-8 Plain Text
Duration : 1 h 31 min
Bit rate : 74 b/s
Count of elements : 925
Stream size : 50.1 KiB (0%)
Title : Cinema Prestige
Language : Russian
Default : No
Forced : No
Text #2
ID : 6
Format : UTF-8
Codec ID : S_TEXT/UTF8
Codec ID/Info : UTF-8 Plain Text
Duration : 1 h 31 min
Bit rate : 49 b/s
Count of elements : 1039
Stream size : 33.2 KiB (0%)
Title : Criterion
Language : English
Default : No
Forced : No
Menu
00:00:00.000 : en:01. Short-staffed
00:08:02.107 : en:02. First course
00:11:24.434 : en:03. The guests
00:16:20.897 : en:04. Overstayed welcome
00:23:46.842 : en:05. Morning
00:27:30.983 : en:06. Trapped
00:32:36.454 : en:07. Need for action
00:40:06.070 : en:08. Second night
00:43:46.207 : en:09. Survival
00:54:09.872 : en:10. Unbearable circumstances
00:59:14.092 : en:11. The hand
01:02:18.193 : en:12. More challenges
01:07:49.691 : en:13. Sacrifices
01:12:15.665 : en:14. Chaos
01:16:22.536 : en:15. “Every man for himself”
01:20:25.279 : en:16. Solution
01:28:07.949 : en:17. Freedom
01:29:23.066 : en:18. Something wrong
01:32:10.066 : en:19. Repeat
Вне форума [Профиль] [ЛС]
Похожие темы
Форум Тема Автор Торрент Отв. Посл. сообщение
./templates/default/images/folder_dl.gif Приключения, детектив, боевик, триллер Акунин Борис - Смерть на брудершафт. Фильма 10. Батальон ангелов [Чонишвили Сергей, 2013 г., 32 kbps, MP3] Omen
1 | 0

0 | 314

1

2013-02-12 14:04
Omen Последнее
./templates/default/images/folder_dl.gif Книги для IPhone, IPod, Apple Роллинс Джеймс и Кантрелл Ребекка - Орден сангвинистов. Книга 1. Кровавое евангелие [Stix37 (ЛИ), 2016, Триллер/Приключения, 128 kbps], M4B, (ИСПРАВЛЕННАЯ РАЗДАЧА) VHS
1 | 0

1 | 1061

1

2016-03-08 17:42
VHS Последнее
./templates/default/images/folder_dl.gif Книги для IPhone, IPod, Apple Алёхин Леонид - Падшие ангелы Мультиверсума [TED, 2016, Киберпанк, боевая фантастика, фэнтези, боевик, 128 kbps], M4B VHS
1 | 0

0 | 902

3

2016-08-02 18:26
VHS Последнее
./templates/default/images/folder_dl.gif Фантастика, фэнтези, ужасы, мистика Виктор Точинов, Александр Щёголев | Ангелы ада (2017) [FB2] }{@R0N
1 | 0

0 | 5313

3

2017-10-10 14:07
}{@R0N Последнее
Показать сообщения:    
Ответить на тему

Текущее время: Сегодня 17:02

Часовой пояс: GMT + 3



Вы не можете начинать темы
Вы не можете отвечать на сообщения
Вы не можете редактировать свои сообщения
Вы не можете удалять свои сообщения
Вы не можете голосовать в опросах
Вы не можете прикреплять файлы к сообщениям
Вы не можете скачивать файлы