Сегодня идет свободное скачивание без начисления Download

Можешь не стучать / Don\'t Bother to Knock (Рэй Уорд Бэйкер / Ray Ward Baker) [1952, США, триллер, драма, WEB-DL 1080p] 2х MVO (Первый канал, SomeWax) + Original Eng + Sub (Rus, Eng)

Ответить на тему
 
Автор
Сообщение

Omen ®

Стаж: 4 года 7 месяцев

Сообщений: 190649

Торрент-статистика

Пост 11-Янв-2017 01:01

[Цитировать]

Можешь не стучать / Don't Bother to Knock- Год выпуска: 1952
Страна: США
Жанр: триллер, драма
Продолжительность: 01:16:10
Перевод 1: Профессиональный (многоголосый закадровый) Первый канал
Перевод 2: Профессиональный (многоголосый закадровый) SomeWax
Оригинальная аудиодорожка: Английская
Cубтитры: Русские [Первый канал (полные, для слабослышащих); SomeWax], английские (полные, для слабослышащих)-Режиссер: Рэй Уорд Бэйкер / Ray Ward Baker
В ролях: Ричард Уидмарк, Мэрилин Монро, Энн Бэнкрофт, Донна Каркоран, Джинни Кэгни, Элайша Кук-младший-Описание:
События происходят в нью-йоркском отеле. Молодую особу приглашают посидеть с девочкой, пока ее родители будут на банкете. Они не подозревают, что у миловидной девушки проблемы с психикой, и оставлять ребенка с ней опасно. Увидев незнакомца, напоминающего ей погибшего жениха, она приглашает его в номер. А девочка начинает ей мешать...-За дорожку с переводом Первого канала спасибо miha2154. Отдельное спасибо Ugo927 за помощь.
| | Сэмпл-Качество: WEB-DL 1080p (SbR)
Контейнер: MKV
Видео: AVC (x264), 1440x1080 (1.33:1), 23.976 fps, 13516 kbps
Аудио 1: Русский AC3 2.0, 48 kHz, 192 kbps — Первый канал
Аудио 2: Русский AC3 2.0, 48 kHz, 192 kbps — SomeWax
Аудио 3: Английский AC3 2.0, 48 kHz, 192 kbps

Скриншоты

WEB-DL 1080p vs [url=viewtopic.php?t=4641691]HDTV 1080i[/url]

-

MI

General
Unique ID : 184380986565834187639026818701794966175 (0x8AB67C7F7C624A37B935B495154F7A9F)
Complete name : Don't.Bother.to.Knock.1952.1080p.WEB-DL.DD2.0.H.264-SbR.mkv
Format : Matroska
Format version : Version 2
File size : 7.50 GiB
Duration : 1 h 16 min
Overall bit rate mode : Variable
Overall bit rate : 14.1 Mb/s
Movie name : Don't Bother to Knock / Можешь не стучать (1952) – RuTracker
Encoded date : UTC 2017-01-10 21:01:00
Writing application : mkvmerge v9.7.1 ('Pandemonium') 64bit
Writing library : libebml v1.3.4 + libmatroska v1.4.5
Cover : Yes
Attachments : cover.jpg
Video
ID : 1
Format : AVC
Format/Info : Advanced Video Codec
Format profile : High@L4
Format settings, CABAC : Yes
Format settings, ReFrames : 4 frames
Codec ID : V_MPEG4/ISO/AVC
Duration : 1 h 16 min
Bit rate mode : Variable
Bit rate : 13.5 Mb/s
Maximum bit rate : 15.0 Mb/s
Width : 1 440 pixels
Height : 1 080 pixels
Display aspect ratio : 4:3
Frame rate mode : Constant
Frame rate : 23.976 (24000/1001) FPS
Color space : YUV
Chroma subsampling : 4:2:0
Bit depth : 8 bits
Scan type : Progressive
Bits/(Pixel*Frame) : 0.362
Stream size : 7.19 GiB (96%)
Title : Don't.Bother.to.Knock.1952.1080p.WEB-DL.DD2.0.H.264-SbR
Writing library : x264 core 148 r2623 d5b2374
Encoding settings : cabac=1 / ref=4 / deblock=1:-1:-1 / analyse=0x3:0x133 / me=umh / subme=9 / psy=1 / psy_rd=1.00:0.15 / mixed_ref=1 / me_range=24 / chroma_me=1 / trellis=2 / 8x8dct=1 / cqm=0 / deadzone=21,11 / fast_pskip=1 / chroma_qp_offset=-3 / threads=34 / lookahead_threads=5 / sliced_threads=0 / nr=150 / decimate=1 / interlaced=0 / bluray_compat=0 / constrained_intra=0 / bframes=8 / b_pyramid=2 / b_adapt=2 / b_bias=0 / direct=3 / weightb=1 / open_gop=0 / weightp=2 / keyint=120 / keyint_min=61 / scenecut=0 / intra_refresh=0 / rc_lookahead=120 / rc=crf / mbtree=1 / crf=18.0 / qcomp=0.60 / qpmin=0 / qpmax=69 / qpstep=4 / vbv_maxrate=15000 / vbv_bufsize=31250 / crf_max=0.0 / nal_hrd=vbr / filler=0 / ip_ratio=1.40 / aq=3:1.00
Language : English
Default : Yes
Forced : No
Color range : Limited
Color primaries : BT.709
Transfer characteristics : BT.709
Matrix coefficients : BT.709
Audio #1
ID : 2
Format : AC-3
Format/Info : Audio Coding 3
Mode extension : CM (complete main)
Format settings, Endianness : Big
Codec ID : A_AC3
Duration : 1 h 16 min
Bit rate mode : Constant
Bit rate : 192 kb/s
Channel(s) : 2 channels
Channel positions : Front: L R
Sampling rate : 48.0 kHz
Frame rate : 31.250 FPS (1536 spf)
Compression mode : Lossy
Stream size : 105 MiB (1%)
Title : MVO – Первый канал
Language : Russian
Default : Yes
Forced : No
Audio #2
ID : 3
Format : AC-3
Format/Info : Audio Coding 3
Mode extension : CM (complete main)
Format settings, Endianness : Big
Codec ID : A_AC3
Duration : 1 h 16 min
Bit rate mode : Constant
Bit rate : 192 kb/s
Channel(s) : 2 channels
Channel positions : Front: L R
Sampling rate : 48.0 kHz
Frame rate : 31.250 FPS (1536 spf)
Compression mode : Lossy
Stream size : 105 MiB (1%)
Title : MVO – SomeWax
Language : Russian
Default : No
Forced : No
Audio #3
ID : 4
Format : AC-3
Format/Info : Audio Coding 3
Mode extension : CM (complete main)
Format settings, Endianness : Big
Codec ID : A_AC3
Duration : 1 h 16 min
Bit rate mode : Constant
Bit rate : 192 kb/s
Channel(s) : 2 channels
Channel positions : Front: L R
Sampling rate : 48.0 kHz
Frame rate : 31.250 FPS (1536 spf)
Compression mode : Lossy
Stream size : 105 MiB (1%)
Title : Original
Language : English
Default : No
Forced : No
Text #1
ID : 5
Format : UTF-8
Codec ID : S_TEXT/UTF8
Codec ID/Info : UTF-8 Plain Text
Duration : 1 h 14 min
Bit rate : 87 b/s
Count of elements : 832
Stream size : 47.8 KiB (0%)
Title : Первый канал (full)
Language : Russian
Default : No
Forced : No
Text #2
ID : 6
Format : UTF-8
Codec ID : S_TEXT/UTF8
Codec ID/Info : UTF-8 Plain Text
Duration : 1 h 14 min
Bit rate : 89 b/s
Count of elements : 856
Stream size : 48.8 KiB (0%)
Title : Первый канал (SDH)
Language : Russian
Default : No
Forced : No
Text #3
ID : 7
Format : UTF-8
Codec ID : S_TEXT/UTF8
Codec ID/Info : UTF-8 Plain Text
Duration : 1 h 16 min
Bit rate : 91 b/s
Count of elements : 922
Stream size : 51.0 KiB (0%)
Title : SomeWax
Language : Russian
Default : No
Forced : No
Text #4
ID : 8
Format : UTF-8
Codec ID : S_TEXT/UTF8
Codec ID/Info : UTF-8 Plain Text
Duration : 1 h 14 min
Bit rate : 68 b/s
Count of elements : 1045
Stream size : 37.5 KiB (0%)
Language : English
Default : No
Forced : No
Text #5
ID : 9
Format : UTF-8
Codec ID : S_TEXT/UTF8
Codec ID/Info : UTF-8 Plain Text
Duration : 1 h 14 min
Bit rate : 72 b/s
Count of elements : 1083
Stream size : 39.4 KiB (0%)
Title : SDH
Language : English
Default : No
Forced : No
Вне форума [Профиль] [ЛС]
Показать сообщения:    
Ответить на тему

Текущее время: Сегодня 11:42

Часовой пояс: GMT + 3



Вы не можете начинать темы
Вы не можете отвечать на сообщения
Вы не можете редактировать свои сообщения
Вы не можете удалять свои сообщения
Вы не можете голосовать в опросах
Вы не можете прикреплять файлы к сообщениям
Вы не можете скачивать файлы