Сегодня идет свободное скачивание без начисления Download

Грешник / Серии: 1-2 из 2 (Дмитрий Константинов) [2014, Драма, WEBRip]

Ответить на тему
 
Автор
Сообщение

Omen ®

Стаж: 4 года 4 месяца

Сообщений: 194441

Торрент-статистика

Пост 11-Янв-2017 01:01

[Цитировать]

Грешник

«Цена ошибки - жизнь»
- Год выпуска: 2014
Производство: Марс Медиа
Жанр: Драма
Продолжительность: 00:50:00
Субтитры: нет
-Режиссёр: Дмитрий Константинов-В ролях: Евгений Антропов, Андрей Смоляков, Любовь Аксёнова, Дмитрий Куличков, Дарья Урсуляк, Дмитрий Мухамадеев, Мария Болонкина, Владимир Капустин, Владимир Виноградов, Иван Дремач, Александр Городиский, Евгения Дмитриева, Максим Битюков, Денис Беспалый-Описание: Когда Владу было 5 лет, его мать убили, и в ее смерти все последующие годы он винит отца. На 20-ю годовщину трагедии юноша решает расставить точки над "i" и собирает всех родственников. В процессе поиска и встреч с ними Влад выясняет факты, которые меняют всё...- / -Релиз от: -Качество: WEBRip
Формат: AVI
Видео кодек: XviD
Аудио кодек: AC3
Видео: 720x400 (16:9), 25.000 fps, XviD, 1807 Kbps, 0.25 Bits/Pixel
Аудио: 48 kHz, AC3 Dolby Digital, 2 ch, 192 Kbps
-Реклама: Нет--

MI

General
Complete name : Downloads\Greshnik.2015.WEB-DLRip.ExKinoRay\Greshnik.(01.seriya).2015.WEB-DLRip.ExKinoRay.avi
Format : AVI
Format/Info : Audio Video Interleave
File size : 699 MiB
Duration : 48mn 40s
Overall bit rate : 2 009 Kbps
Writing application : VirtualDubMod 1.5.10.2 (build 2540/release)
Writing library : VirtualDubMod build 2540/release
Video #0
ID : 0
Format : MPEG-4 Visual
Format profile : Advanced Simple@L5
Format settings, BVOP : 1
Format settings, QPel : No
Format settings, GMC : No warppoints
Format settings, Matrix : Custom
Codec ID : XVID
Codec ID/Hint : XviD
Duration : 48mn 40s
Bit rate : 1 807 Kbps
Width : 720 pixels
Height : 400 pixels
Display aspect ratio : 16:9
Frame rate : 25.000 fps
Color space : YUV
Chroma subsampling : 4:2:0
Bit depth : 8 bits
Scan type : Progressive
Compression mode : Lossy
Bits/(Pixel*Frame) : 0.251
Stream size : 629 MiB (90%)
Writing library : XviD 1.2.1 (UTC 2008-12-04)
Audio #1
ID : 1
Format : AC-3
Format/Info : Audio Coding 3
Mode extension : CM (complete main)
Format settings, Endianness : Big
Codec ID : 2000
Duration : 48mn 40s
Bit rate mode : Constant
Bit rate : 192 Kbps
Channel(s) : 2 channels
Channel positions : Front: L R
Sampling rate : 48.0 KHz
Bit depth : 16 bits
Compression mode : Lossy
Stream size : 66.9 MiB (10%)
Alignment : Split accross interleaves
Interleave, duration : 40 ms (1.00 video frame)
Interleave, preload duration : 500 ms

Скриншоты

Вне форума [Профиль] [ЛС]
Показать сообщения:    
Ответить на тему

Текущее время: Сегодня 09:48

Часовой пояс: GMT + 3



Вы не можете начинать темы
Вы не можете отвечать на сообщения
Вы не можете редактировать свои сообщения
Вы не можете удалять свои сообщения
Вы не можете голосовать в опросах
Вы не можете прикреплять файлы к сообщениям
Вы не можете скачивать файлы