Today is a free download without charge Download

Марафон для трех граций / Серии: 1-4 из 4 (Алексей Праздников) [2015, Иронический детектив, WEBRip]

Reply to topic
 
Author
Message

Omen ®

Longevity: 6 years 9 months

Posts: 181090

Торрент-статистика

Post 09-Jan-2017 01:01

[Quote]

Марафон для трех граций- Год выпуска: 2015
Производство: Приор Продакшн
Жанр: Иронический детектив
Продолжительность: 00:45:00
Субтитры: нет-Режиссёр: Алексей Праздников-В ролях: Алла Юганова, Юлия Такшина, Екатерина Копанова, Александр Макогон, Анна Марущенко, Ольга Сухорукова, Александр Ленин, Геннадий Смирнов-Описание: Катя, Жанна и Ирина — три неунывающие подруги. Секретов между ними давно нет, они привыкли все поверять друг другу и помогать в любой беде. Им не надо искать неприятности, неприятности их сами находят.-Встретившись в кафе, подруги обращают внимание на странную пару за соседним столом: женщина тайно передает мужчине конверт. А несколько минут спустя они видят в туалете на полу того самого мужчину застреленным. До приезда полиции Катя успела не только оставить свои отпечатки на пистолете, но и прихватить конверт покойника с деньгами и фотографиями. И теперь нашим девушкам больше ничего не остается, кроме как самим расследовать это дело, пока Катю не посадили за убийство.
Убитым оказался частный сыщик, который шантажировал тех, за кем его нанимали следить, и получал от них деньги за молчание. Подняв его последние дела, подруги пытаются узнать, кто из жертв шантажиста больше всех боялся разоблачения.-Сэмпл-Релиз от: -Качество: WEBRip
Формат: AVI
Видео кодек: XviD
Аудио кодек: AC3
Видео: 720x400 (16:9), 25.000 fps, XviD build 73, 1524 Kbps, 0.21 Bits/Pixel
Аудио: 48 kHz, AC3 Dolby Digital, 2 ch, 192 Kbps-Реклама: Нет-

MI

General
Complete name : Downloads\Марафон для трех граций.2015.WEB-DLRip.Files-x\01.Марафон для трех граций.2015.WEB-DLRip.Files-x.avi
Format : AVI
Format/Info : Audio Video Interleave
File size : 553 MiB
Duration : 44mn 47s
Overall bit rate : 1 725 Kbps
Writing application : VirtualDubMod 1.5.10.3 | www.virtualdub-fr.org || (build 2550/release)
Writing library : VirtualDubMod build 2550/release
Video #0
ID : 0
Format : MPEG-4 Visual
Format profile : Advanced Simple@L5
Format settings, BVOP : 1
Format settings, QPel : No
Format settings, GMC : No warppoints
Format settings, Matrix : Custom
Codec ID : XVID
Codec ID/Hint : XviD
Duration : 44mn 47s
Bit rate : 1 524 Kbps
Width : 720 pixels
Height : 400 pixels
Display aspect ratio : 16:9
Frame rate : 25.000 fps
Color space : YUV
Chroma subsampling : 4:2:0
Bit depth : 8 bits
Scan type : Progressive
Compression mode : Lossy
Bits/(Pixel*Frame) : 0.212
Stream size : 488 MiB (88%)
Writing library : XviD 73
Audio #1
ID : 1
Format : AC-3
Format/Info : Audio Coding 3
Mode extension : CM (complete main)
Format settings, Endianness : Big
Codec ID : 2000
Duration : 44mn 47s
Bit rate mode : Constant
Bit rate : 192 Kbps
Channel(s) : 2 channels
Channel positions : Front: L R
Sampling rate : 48.0 KHz
Bit depth : 16 bits
Compression mode : Lossy
Stream size : 61.5 MiB (11%)
Alignment : Split accross interleaves
Interleave, duration : 40 ms (1.00 video frame)
Interleave, preload duration : 500 ms

Скриншоты

Other forum [Profile] [PM]
Display posts from previous:    
Reply to topic

The time now is: Today 20:00

All times are GMT + 3 Hours



You cannot post new topics in this forum
You cannot reply to topics in this forum
You cannot edit your posts in this forum
You cannot delete your posts in this forum
You cannot vote in polls in this forum
You cannot attach files in this forum
You cannot download files in this forum