Today is a free download without charge Download

Гимнастка Аня [2010 г., Oral Sex, Anal Sex, Dogging, CamRip]

Reply to topic
 
Author
Message

XP1971 ®

Торрент-статистика

Post 08-Jan-2017 23:05

[Quote]

-Гимнастка Аня- -
Студия: N/A
Режиссер: N/A
Страна: Россия
Год выпуска: 2010 г.
Продолжительность: 00:18:26
Жанр: Oral Sex, Anal Sex, Dogging
Оригинальный аудиопоток: русский-В ролях: Анна-Описание: На что способны гимнастки в сексе особо рассказывать не надо ...-Качество видео: CamRip
Формат видео: AVI
Видео кодек: DivX
Аудио кодек: MP3
Видео: AVI | 520x416 | 1008 Kbps | 25.0 fps
Аудио: MP3 | 16.0 KHz | 1 ch | 18.0 Kbps
Cубтитры: отсутствуют

Media Info

Код:
General
Complete name : Gimnastka Anny_[/*spam*/].avi
Format : AVI
Format/Info : Audio Video Interleave
File size : 137 MiB
Duration : 18mn 26s
Overall bit rate : 1 036 Kbps
Writing library : VirtualDub build 27021/release
Video
ID : 0
Format : MPEG-4 Visual
Format settings, BVOP : No
Format settings, QPel : No
Format settings, GMC : No warppoints
Format settings, Matrix : Default (H.263)
Codec ID : DX50
Codec ID/Hint : DivX 5
Duration : 18mn 26s
Bit rate : 1 008 Kbps
Width : 520 pixels
Height : 416 pixels
Display aspect ratio : 5:4
Frame rate : 25.000 fps
Color space : YUV
Chroma subsampling : 4:2:0
Bit depth : 8 bits
Scan type : Progressive
Compression mode : Lossy
Bits/(Pixel*Frame) : 0.186
Stream size : 133 MiB (97%)
Writing library : DivX 5.0.5 (UTC 2003-04-24)
Audio
ID : 1
Format : MPEG Audio
Format version : Version 2
Format profile : Layer 3
Codec ID : 55
Codec ID/Hint : MP3
Duration : 18mn 26s
Bit rate mode : Variable
Bit rate : 18.0 Kbps
Channel(s) : 1 channel
Sampling rate : 16.0 KHz
Compression mode : Lossy
Stream size : 2.37 MiB (2%)
Alignment : Split accross interleaves
Interleave, duration : 40 ms (1.00 video frame)
Interleave, preload duration : 500 ms

Скринлист

Скриншоты

     
 
Similar theme
Forum Topic Author Torrent Replies Last Post
./templates/default/images/folder_dl.gif Медицина и Здоровье Людмила Рудницкая | Лечебная гимнастика для позвоночника. Советы врача (2017) [PDF] }{@R0N
1 | 0

0 | 803

10

2018-05-27 21:47
}{@R0N Latest
Display posts from previous:    
Reply to topic

The time now is: Today 14:46

All times are GMT + 3 Hours



You cannot post new topics in this forum
You cannot reply to topics in this forum
You cannot edit your posts in this forum
You cannot delete your posts in this forum
You cannot vote in polls in this forum
You cannot attach files in this forum
You cannot download files in this forum