Today is a free download without charge Download

Король и я / The King and I (Ричард Рич / Richard Rich) [1999, США, Мультфильм, BDRip] AVO Александр Кашкин (Первомайский) + Original Eng

Reply to topic
 
Author
Message

Omen ®

Longevity: 6 years 9 months

Posts: 181090

Торрент-статистика

Post 07-Jan-2017 01:00

[Quote]

Король и я / The King and I
Страна: США
Жанр: Мультфильм
Продолжительность: 01:28:41
Год выпуска: 1999
Перевод: Авторский (одноголосый закадровый) Александр Кашкин (Первомайский)
Русские субтитры: нет
Режиссёр: Ричард Рич / Richard Rich
Роли озвучивали: Миранда Ричардсон, Кристиана Нолл, Мартин Виднович, Иэн Ричардсон, Даррел Хэммонд, Аллен Д. Хонг, Дэвид Бёрнэм, Арми Арабе, Трэйси Веннер Уоррен, Адам Вайли
Описание: Героям этой увлекательной истории — отважной Анне Леоноуэнс и ее десятилетнему сыну — предстоит отправиться в нелегкое, но захватывающее путешествие. На востоке, в далекой прекрасной стране, их ждет добрый и мудрый король.
Но первый министр королевства во что бы то ни стало хочет погубить бесстрашных путешественников при помощи обмана и колдовских чар.
Доп. информация: Дорожка с А. Кашкиным ремастерирована, синхронизирована и наложена ale_x2008 при помощи iZotope RX2, Sony Vegas и VirtualDubMod
За оцифрованную с VHS дорожку благодарим - buyanoff.vladimir

Семпл: https://yadi.sk/i/CLtI2zhk37GYa6
Качество: DVDRip
Формат: AVI
Видео: XviD build 63, 704x384 (1.83:1), 23.976 fps, 1770 kbps avg, 0.27 bit/pixel
Аудио: AC3 Dolby Digital, 48000Hz, 2/0 (L,R) ch (mono), 192.00 kbps avg
Аудио 2: 48 kHz, AC3 Dolby Digital, 3/2 (L,C,R,l,r) + LFE ch, ~384 kbps
Субтитры: отсутствуют

Подробные технические данные

Король и я - The King and I [by ale_x2008].aviFormat : AVIFormat/Info : Audio Video InterleaveFile size : 1.46 GiBDuration : 1 h 28 minOverall bit rate : 2 361 kb/sMovie name : Король и я - The King and I [by ale_x2008]Director : by ale_x2008Writing application : VirtualDubMod 1.5.10.2 (build 2540/release)Copyright : Edich2Comment : /*spam*/
VideoID : 0Format : MPEG-4 VisualFormat profile : Advanced Simple@L5Format settings, BVOP : 1Format settings, QPel : NoFormat settings, GMC : No warppointsFormat settings, Matrix : CustomCodec ID : XVIDCodec ID/Hint : XviDDuration : 1 h 28 minBit rate : 1 771 kb/sWidth : 704 pixelsHeight : 384 pixelsDisplay aspect ratio : 1.85:1Frame rate : 23.976 (24000/1001) FPSColor space : YUVChroma subsampling : 4:2:0Bit depth : 8 bitsScan type : ProgressiveCompression mode : LossyBits/(Pixel*Frame) : 0.273Stream size : 1.10 GiB (75%)Writing library : XviD 63
Audio #1ID : 1Format : AC-3Format/Info : Audio Coding 3Mode extension : CM (complete main)Format settings, Endianness : BigCodec ID : 2000Duration : 1 h 28 minBit rate mode : ConstantBit rate : 192 kb/sChannel(s) : 2 channelsChannel positions : Front: L RSampling rate : 48.0 kHzFrame rate : 31.250 FPS (1536 spf)Compression mode : LossyStream size : 122 MiB (8%)Alignment : Split accross interleavesInterleave, duration : 42 ms (1.00 video frame)Interleave, preload duratio : 500 ms
Audio #2ID : 2Format : AC-3Format/Info : Audio Coding 3Mode extension : CM (complete main)Format settings, Endianness : BigCodec ID : 2000Duration : 1 h 28 minBit rate mode : ConstantBit rate : 384 kb/sChannel(s) : 6 channelsChannel positions : Front: L C R, Side: L R, LFESampling rate : 48.0 kHzFrame rate : 31.250 FPS (1536 spf)Compression mode : LossyStream size : 244 MiB (16%)Alignment : Split accross interleavesInterleave, duration : 42 ms (1.00 video frame)Interleave, preload duratio : 500 ms

Скриншоты


Other forum [Profile] [PM]
Similar theme
Forum Topic Author Torrent Replies Last Post
./templates/default/images/folder_dl.gif Фантастика, фэнтези, ужасы, мистика Эдмонд Мур Гамильтон | Звездные короли [сборник] (2016) [FB2] Omen
1 | 0

0 | 740

5

2016-03-10 00:27
Omen Latest
./templates/default/images/folder_dl.gif Новинки (HD|DVD|BD|WEB|TV|SAT|PDTV|-Rip) Годзилла 2: Король монстров / Godzilla: King of the Monsters (Майкл Догерти) [2019 г., Фантастика, фэнтези, боевик, приключения, WEBRip] | DUB (Чистый звук) Theseus
2 | 0

0 | 1295

0

2019-07-27 22:07
Theseus Latest
Display posts from previous:    
Reply to topic

The time now is: Today 18:01

All times are GMT + 3 Hours



You cannot post new topics in this forum
You cannot reply to topics in this forum
You cannot edit your posts in this forum
You cannot delete your posts in this forum
You cannot vote in polls in this forum
You cannot attach files in this forum
You cannot download files in this forum