Today is a free download without charge Download

Покахонтас / Покахонтас - дочь вождя / Pocahontas / The Adventures of Pocahontas: Indian Princess (Тошиюки Хирума / Toshiyuki Hiruma, Такаши Масунага / Takashi Masunaga) [1994, Япония, США, Мультфильм, DVDRip] AVO Константин Дьяконов

Reply to topic
 
Author
Message

Omen ®

Longevity: 6 years 9 months

Posts: 181090

Торрент-статистика

Post 04-Jan-2017 01:00

[Quote]

Покахонтас / Покахонтас - дочь вождя / Pocahontas
Страна: Япония, США
Жанр: Мультфильм
Продолжительность: 00:44:10
Год выпуска: 1994
Перевод: Авторский (одноголосый закадровый) Константин Дьяконов
Русские субтитры: нет
Режиссёр: Тошиюки Хирума / Toshiyuki Hiruma, Такаши Масунага / Takashi Masunaga
Роли озвучивали: Тони Эйл, Нэйтан Эсвелл, Чера Бэйли, Кэтлин Барр, Лиллиэн Карлсон, Гари Чок, Йен Джеймс Корлетт, Майкл Донован, Кент Галли, Фил Хэйес
Описание: Все любят историю о Покахонтас, отважной индейской принцессе, чья доброта привносит мир в отношения между ее племенем и первыми английскими поселенцами. Эта яркая, живая анимационная лента, наполненная захватывающими приключениями и сюрпризами, будет настоящим подарком каждому ребенку. Покахонтас - дочь великого вождя индейцев по имени Похатан. Вместе со своим племенем она кочует по бескрайним зеленым просторам и величественным горам Америки. Однажды, собирая ягоды в лесу вместе со своими друзьями, она видит, что на берег реки высадились белые поселенцы под предводительством капитана Джона Смита. И индейцы, и поселенцы опасаются и не доверяют друг другу. Но когда Покахонтас знакомится с Джоном Смитом, она использует всю свою любовь и отвагу, чтобы обе стороны поняли друг друга и все люди жили в мире и согласии.
Доп. информация: Дорожка с К. Дьяконовым синхронизирована и наложена ale_x2008 при помощи Sony Vegas и VirtualDubMod
За оцифрованную с VHS дорожку благодарим - Raptorio Rio

Семпл: https://yadi.sk/i/ZN1m8ytw36dyhJ
Качество: DVDRip
Формат: AVI
Видео: XviD build 73, 640x480 (1.33:1), 25 fps, 2171 kbps avg, 0.28 bit/pixel
Аудио: AC3 Dolby Digital, 48000Hz, 2/0 (L,R) ch (mono), 192.00 kbps avg
Субтитры: отсутствуют

Подробные технические данные

Покахонтас - Pocahontas 1994 [by ale_x2008].aviFormat : AVIFormat/Info : Audio Video InterleaveFile size : 750 MiBDuration : 44 minOverall bit rate : 2 374 kb/sMovie name : Покахонтас - Pocahontas 1994 [by ale_x2008]Director : by ale_x2008Writing application : VirtualDubMod 1.5.10.2 (build 2540/release)Copyright : Edich2Comment : /*spam*/
VideoID : 0Format : MPEG-4 VisualFormat profile : Advanced Simple@L5Format settings, BVOP : 2Format settings, QPel : NoFormat settings, GMC : No warppointsFormat settings, Matrix : CustomCodec ID : XVIDCodec ID/Hint : XviDDuration : 44 minBit rate : 2 172 kb/sWidth : 640 pixelsHeight : 480 pixelsDisplay aspect ratio : 4:3Frame rate : 25.000 FPSColor space : YUVChroma subsampling : 4:2:0Bit depth : 8 bitsScan type : ProgressiveCompression mode : LossyBits/(Pixel*Frame) : 0.283Stream size : 686 MiB (92%)Writing library : XviD 73
AudioID : 1Format : AC-3Format/Info : Audio Coding 3Mode extension : CM (complete main)Format settings, Endianness : BigCodec ID : 2000Duration : 44 minBit rate mode : ConstantBit rate : 192 kb/sChannel(s) : 2 channelsChannel positions : Front: L RSampling rate : 48.0 kHzFrame rate : 31.250 FPS (1536 spf)Compression mode : LossyStream size : 60.7 MiB (8%)Alignment : Split accross interleavesInterleave, duration : 40 ms (1.00 video frame)Interleave, preload duratio : 500 ms

Скриншоты


Other forum [Profile] [PM]
Display posts from previous:    
Reply to topic

The time now is: Today 19:25

All times are GMT + 3 Hours



You cannot post new topics in this forum
You cannot reply to topics in this forum
You cannot edit your posts in this forum
You cannot delete your posts in this forum
You cannot vote in polls in this forum
You cannot attach files in this forum
You cannot download files in this forum