Today is a free download without charge Download

Иван Васильевич меняет профессию (Леонид Гайдай) [1973 г., комедия, приключения, семейный, фантастика, BDRip–AVC]

Reply to topic
 
Author
Message

O.S.A. ®

Gender:

Longevity: 5 years 7 months

Posts: 3548

Location: СССР

Торрент-статистика

Post 02-Mar-2014 11:33

[Quote]

--Иван Васильевич меняет профессию--
Год выпуска: 1973
Страна: СССР
Производство: «Мосфильм»
Жанр: комедия, приключения, семейный, фантастика
Продолжительность: 01:31:38
Перевод: Не требуется-Режиссёр: Леонид Гайдай-В ролях: Александр Демьяненко (Александр Тимофеев, инженер-изобретатель), Юрий Яковлев (царь Иван Васильевич Грозный / управдом Иван Васильевич Бунша), Леонид Куравлёв (Жорж Милославский), Наталья Крачковская (Ульяна Андреевна Бунша), Савелий Крамаров (дьяк Феофан), Наталья Селезнёва (Зина Тимофеева), Владимир Этуш (Антон Семенович Шпак), Михаил Пуговкин (Карп Савельевич Якин), Сергей Филиппов (шведский посол), Наталья Кустинская (актриса, подруга режиссера Якина), Эдуард Бредун (спекулянт радиотоварами), Валентин Грачев (стрелец)...-Описание: Инженер-изобретатель Тимофеев сконструировал машину времени, которая соединила его квартиру с далеким шестнадцатым веком — точнее, с палатами государя Ивана Грозного. Туда-то и попадают тезка царя пенсионер-общественник Иван Васильевич Бунша и квартирный вор Жорж Милославский.
На их место в двадцатом веке «переселяется» великий государь. Поломка машины приводит ко множеству неожиданных и забавных событий…-- --Качество: BDRip–AVC [Исходник: Blu-Ray]
Формат: MKV
Видео кодек: H.264
Аудио кодек: АС3
Видео: 992x720 (1.38:1), 23.976 fps, MPEG-4 AVC, ~2966 kbps avg, 0.173 bit/pixel
Аудио: 48.0 kHz, AC3 Dolby Digital, 3/2 (L,C,R,l,r) + LFE ch, ~448.00 kbps avg
Субтитры: нет--

Media Info

Общее
Полное имя : Ivan.Vasilyevich.1973.O.BDRip.720p.mkv
Формат : Matroska
Версия формата : Version 4 / Version 2
Размер файла : 2,19 Гбайт
Продолжительность : 1 ч. 31 м.
Общий поток : 3415 Кбит/сек
Дата кодирования : UTC 2013-05-03 14:45:49
Программа кодирования : mkvmerge v6.1.0 ('Old Devil') built on Mar 2 2013 14:32:37
Библиотека кодирования : libebml v1.3.0 + libmatroska v1.4.0
Видео
Идентификатор : 1
Формат : AVC
Формат/Информация : Advanced Video Codec
Профиль формата : High@L4.1
Параметр CABAC формата : Да
Параметр ReFrames формата : 11 кадров
Идентификатор кодека : V_MPEG4/ISO/AVC
Продолжительность : 1 ч. 31 м.
Битрейт : 2966 Кбит/сек
Ширина : 992 пикселя
Высота : 720 пикселей
Соотношение сторон : 1,378
Режим частоты кадров : Постоянный
Частота кадров : 23,976 кадра/сек
Цветовое пространство : YUV
Субдискретизация насыщенности : 4:2:0
Битовая глубина : 8 бит
Тип развёртки : Прогрессивная
Бит/(Пиксели*Кадры) : 0.173
Размер потока : 1,86 Гбайт (85%)
Библиотека кодирования : x264 core 119 r2106 07efeb4
Настройки программы : cabac=1 / ref=11 / deblock=1:-2:-1 / analyse=0x3:0x113 / me=umh / subme=9 / psy=1 / psy_rd=1.00:0.10 / mixed_ref=1 / me_range=32 / chroma_me=1 / trellis=2 / 8x8dct=1 / cqm=0 / deadzone=21,11 / fast_pskip=1 / chroma_qp_offset=-3 / threads=9 / sliced_threads=0 / nr=0 / decimate=1 / interlaced=0 / bluray_compat=0 / constrained_intra=0 / bframes=10 / b_pyramid=2 / b_adapt=2 / b_bias=0 / direct=3 / weightb=1 / open_gop=0 / weightp=2 / keyint=240 / keyint_min=23 / scenecut=40 / intra_refresh=0 / rc_lookahead=80 / rc=2pass / mbtree=1 / bitrate=2966 / ratetol=1.0 / qcomp=0.60 / qpmin=0 / qpmax=69 / qpstep=4 / cplxblur=20.0 / qblur=0.5 / ip_ratio=1.40 / aq=2:0.90
Язык : English
Default : Да
Forced : Нет
Аудио
Идентификатор : 2
Формат : AC-3
Формат/Информация : Audio Coding 3
Расширение режима : CM (complete main)
Параметр Endianness формата : Big
Идентификатор кодека : A_AC3
Продолжительность : 1 ч. 31 м.
Вид битрейта : Постоянный
Битрейт : 448 Кбит/сек
Каналы : 6 каналов
Расположение каналов : Front: L C R, Side: L R, LFE
Частота : 48,0 КГц
Битовая глубина : 16 бит
Метод сжатия : С потерями
Размер потока : 294 Мбайт (13%)
Язык : Russian
Default : Да
Forced : Нет

Скриншоты

       
-- --

_________________

===============================
IGNOSCITO SAEPE ALTERI, NUNQUAM TIBI
Other forum [Profile] [PM]

fat2010

Longevity: 7 years 1 month

Posts: 20

Торрент-статистика

Post 03-Jan-2017 22:03 (after 2 years 10 months)

[Quote]

Спасибо!
Other forum [Profile] [PM]
Display posts from previous:    
Reply to topic

The time now is: Today 21:18

All times are GMT + 3 Hours



You cannot post new topics in this forum
You cannot reply to topics in this forum
You cannot edit your posts in this forum
You cannot delete your posts in this forum
You cannot vote in polls in this forum
You cannot attach files in this forum
You cannot download files in this forum