Today is a free download without charge Download

Земля до начала времен 6: Тайна Скалы Динозавров / The Land Before Time VI: The Secret of Saurus Rock (Чарльз Гросвенор / Charles Grosvenor) [1998, США, мультфильм, DVDRip] AVO Сергей Визгунов

Reply to topic
 
Author
Message

Omen ®

Longevity: 6 years 9 months

Posts: 181090

Торрент-статистика

Post 02-Jan-2017 01:00

[Quote]

Земля до начала времен 6: Тайна Скалы Динозавров / The Land Before Time VI: The Secret of Saurus Rock
Страна: США
Жанр: мультфильм
Продолжительность: 01:13:00
Год выпуска: 1998
Перевод: Авторский (одноголосый закадровый) Сергей Визгунов
Русские субтитры: нет
Режиссёр: Чарльз Гросвенор / Charles Grosvenor
Роли озвучивали: Томас Деккер, Кеннет Марс, Энди МакЭфи, Ария Ноэль Курзон, Джефф Беннетт, Нэнси Картрайт, Сэнди Фокс, Мириам Флинн, Джон Ингл, Дэнни Манн
Описание: На самом краю Великой Долины высится загадочная Скала Динозавров. Легенды гласят, что именно она защищает жителей долины от зла. Рассказывают также о бесстрашном герое — Одиноком Динозавре, который много лет назад отстоял Великую Долину и спас ее от свирепых хищников Острозубов. Но существовал ли он в действительности?
Недавно в окрестностях Великой Долины объявился странный динозавр, по имени Док, с длинной шеей и сильным хвостом. Наш герой Крошки-Ножки уверен, что Док и есть отважный Одинокий Динозавр. Так ли это? Компания непоседливых малышей уже отправилась в поход к Скале Динозаворов, чтобы узнать всю правду. Вслед за ними в опасные места отправляются и Крошки-Ножки с друзьями.
В этот раз динозаврикам предстоит встретиться с Острозубами лицом к лицу!
Доп. информация: Дорожка с С. Визгуновым cинхронизирована и наложена ale_x2008 при помощи Adobe Audition, Sony Vegas и VirtualDubMod
За оцифрованную с VHS дорожку благодарим - alenavova

Семпл: https://yadi.sk/i/PZn_IalB36M8E4
Качество: DVDRip
Формат: AVI
Видео: 720x544 (1.32:1), 25,000 fps, XviD 63 ~2 211 kbps avg, 0.23 bit/pixel
Аудио: Russian: AC3 Dolby Digital, 48000Hz, 2/0 (L,R) ch (mono), 192.00 kbps avg
Аудио 2: English: 48 kHz, AC3 Dolby Digital, 2/0 (L,R) ch, ~224 kbps
Субтитры: отсутствуют

Подробные технические данные

Земля до начала времен 6 - Тайна Скалы Динозавров (The Land Before Time VI - The Secret of Saurus Rock) [by ale_x2008].aviFormat : AVIFormat/Info : Audio Video InterleaveFile size : 1.35 GiBDuration : 1 h 13 minOverall bit rate : 2 641 kb/sMovie name : Земля до начала времен 6 - Тайна Скалы Динозавров (The Land Before Time VI - The Secret of Saurus Rock) [by ale_x2008]Director : by ale_x2008Writing application : VirtualDubMod 1.5.10.2 (build 2540/release)Copyright : Edich2Comment : /*spam*/
VideoID : 0Format : MPEG-4 VisualFormat profile : Advanced Simple@L5Format settings, BVOP : 1Format settings, QPel : NoFormat settings, GMC : No warppointsFormat settings, Matrix : CustomCodec ID : XVIDCodec ID/Hint : XviDDuration : 1 h 13 minBit rate : 2 211 kb/sWidth : 720 pixelsHeight : 544 pixelsDisplay aspect ratio : 4:3Frame rate : 25.000 FPSColor space : YUVChroma subsampling : 4:2:0Bit depth : 8 bitsScan type : ProgressiveCompression mode : LossyBits/(Pixel*Frame) : 0.226Stream size : 1.13 GiB (84%)Writing library : XviD 63
Audio #1ID : 1Format : AC-3Format/Info : Audio Coding 3Mode extension : CM (complete main)Format settings, Endianness : BigCodec ID : 2000Duration : 1 h 13 minBit rate mode : ConstantBit rate : 192 kb/sChannel(s) : 2 channelsChannel positions : Front: L RSampling rate : 48.0 kHzFrame rate : 31.250 FPS (1536 spf)Compression mode : LossyStream size : 100 MiB (7%)Alignment : Split accross interleavesInterleave, duration : 40 ms (1.00 video frame)Interleave, preload duratio : 500 ms
Audio #2ID : 2Format : AC-3Format/Info : Audio Coding 3Mode extension : CM (complete main)Format settings, Endianness : BigCodec ID : 2000Duration : 1 h 13 minBit rate mode : ConstantBit rate : 224 kb/sChannel(s) : 2 channelsChannel positions : Front: L RSampling rate : 48.0 kHzFrame rate : 31.250 FPS (1536 spf)Compression mode : LossyStream size : 117 MiB (8%)Alignment : Split accross interleavesInterleave, duration : 40 ms (1.00 video frame)Interleave, preload duratio : 500 ms

Скриншоты


Other forum [Profile] [PM]
Similar theme
Forum Topic Author Torrent Replies Last Post
./templates/default/images/folder_dl.gif Фантастика, фэнтези, ужасы, мистика Валерий Большаков | Первопроходец. Бомж с планеты Земля (2019) [FB2] }{@R0N
1 | 0

0 | 531

0

2019-06-09 22:59
}{@R0N Latest
./templates/default/images/folder_dl.gif Фантастика, фэнтези, ужасы, мистика Сергей Куц | Земля 2252 (2019) [FB2] }{@R0N
1 | 0

0 | 186

0

2019-07-07 15:54
}{@R0N Latest
Display posts from previous:    
Reply to topic

The time now is: Today 18:01

All times are GMT + 3 Hours



You cannot post new topics in this forum
You cannot reply to topics in this forum
You cannot edit your posts in this forum
You cannot delete your posts in this forum
You cannot vote in polls in this forum
You cannot attach files in this forum
You cannot download files in this forum