Today is a free download without charge Download

28 панфиловцев (Ким Дружинин, Андрей Шальопа) [2016, Россия, Военный, драма, WEB-DL 1080p] (iTunes) + Original Rus

Reply to topic
 
Author
Message

Omen ®

Longevity: 6 years 9 months

Posts: 181090

Торрент-статистика

Post 26-Dec-2016 01:01

[Quote]

28 панфиловцев
Страна: Россия
Студия: 28 панфиловцев, Libyan Palette Studios
Жанр: Военный, драма
Год выпуска: 2016
Продолжительность: 02:00:37
Перевод: Не требуется iTunes
Cубтитры: нет
Оригинальная аудиодорожка: русский
Режиссер: Ким Дружинин, Андрей Шальопа
В ролях: Александр Устюгов, Яков Кучеревский, Азамат Нигманов, Олег Фёдоров, Алексей Морозов, Антон Кузнецов, Алексей Лонгин, Максим Белбородов, Дмитрий Мурашев, Виталий Коваленко
Описание: Осенью 1941-го года немецкие части, стоявшие возле Волоколамска, отделяло от Москвы каких-нибудь два часа по шоссе. Однако, на этом шоссе стояла 316-я стрелковая дивизия под командованием генерала И.В.Панфилова. Этот военачальник обладал настолько высоким авторитетом среди личного состава, что бойцы дивизии сами называли себя панфиловцами. А дивизию - панфиловской.

Сэмпл: https://cloud.mail.ru/public/3fNn/YKg6EgQMS
Тип релиза: WEB-DL 1080p
Контейнер: MKV
Видео: MPEG-4 AVC, 4473 Кбит/с, 1920x804, 24,000 fps
Аудио: Rus, AC3, 384 kb/s (6 ch), 48 kHz

MediaInfo

Общее
Уникальный идентификатор : 207177726857908439473549456018614133825 (0x9BDCFA9269848E7B92970C7EB9562441)
Полное имя : 28_PANFILOVCEV_WEB_DL_1080p-BLUEBIRD.mkv
Формат : Matroska
Версия формата : Version 4 / Version 2
Размер файла : 4,18 Гбайт
Продолжительность : 2 ч. 0 м.
Общий поток : 4956 Кбит/сек
Название фильма : 28_PANFILOVCEV_WEB_DL_1080p-BLUEBIRD
Дата кодирования : UTC 2016-12-25 20:18:41
Программа кодирования : mkvmerge v6.9.1 ('Blue Panther') 32bit built on Apr 18 2014 18:15:44
Библиотека кодирования : libebml v1.3.0 + libmatroska v1.4.1
Видео
Идентификатор : 1
Формат : AVC
Формат/Информация : Advanced Video Codec
Профиль формата : High@L4
Параметр CABAC формата : Да
Параметр ReFrames формата : 5 кадров
Идентификатор кодека : V_MPEG4/ISO/AVC
Продолжительность : 2 ч. 0 м.
Битрейт : 4473 Кбит/сек
Ширина : 1920 пикселей
Высота : 804 пикселя
Соотношение сторон : 2,40:1
Режим частоты кадров : Постоянный
Частота кадров : 24,000 кадра/сек
Цветовое пространство : YUV
Субдискретизация насыщенности : 4:2:0
Битовая глубина : 8 бит
Тип развёртки : Прогрессивная
Бит/(Пиксели*Кадры) : 0.121
Размер потока : 3,77 Гбайт (90%)
Заголовок : 28_PANFILOVCEV_WEB_DL_1080p-BLUEBIRD
Язык : Russian
Default : Да
Forced : Нет
Цветовой диапазон : Limited
Основные цвета : BT.709
Характеристики трансфера : BT.709
Коэффициенты матрицы : BT.709
Аудио
Идентификатор : 2
Формат : AC-3
Формат/Информация : Audio Coding 3
Расширение режима : CM (complete main)
Параметр Endianness формата : Big
Идентификатор кодека : A_AC3
Продолжительность : 2 ч. 0 м.
Вид битрейта : Постоянный
Битрейт : 384 Кбит/сек
Каналы : 6 каналов
Расположение каналов : Front: L C R, Side: L R, LFE
Частота : 48,0 КГц
Частота кадров : 31,250 кадров/сек (1536 spf)
Метод сжатия : С потерями
Размер потока : 331 Мбайт (8%)
Заголовок : [ORIGINAL] DD 5.1 @ 384 kbps (iTunes)
Язык : Russian
Default : Да
Forced : Нет
Меню
00:00:00.000 : en:Глава 1
00:06:28.666 : en:Глава 2
00:13:30.207 : en:Глава 3
00:20:32.207 : en:Глава 4
00:27:03.957 : en:Глава 5
00:33:34.290 : en:Глава 6
00:40:40.415 : en:Глава 7
00:48:05.248 : en:Глава 8
00:55:16.373 : en:Глава 9
01:02:22.998 : en:Глава 10
01:10:09.039 : en:Глава 11
01:18:04.164 : en:Глава 12
01:25:17.997 : en:Глава 13
01:32:36.997 : en:Глава 14
01:40:55.830 : en:Глава 15

Скриншоты

Other forum [Profile] [PM]
Display posts from previous:    
Reply to topic

The time now is: Today 18:01

All times are GMT + 3 Hours



You cannot post new topics in this forum
You cannot reply to topics in this forum
You cannot edit your posts in this forum
You cannot delete your posts in this forum
You cannot vote in polls in this forum
You cannot attach files in this forum
You cannot download files in this forum