Today is a free download without charge Download

Однажды в России (2016.12.18) SATRip (сезон 4, выпуск 16)

Reply to topic
 
Author
Message

}{@R0N ®

Longevity: 3 years 9 months

Posts: 7612

Торрент-статистика

Post 18-Dec-2016 22:55

[Quote]

Однажды в России (2016.12.18)
(сезон 4, выпуск 16)
- Телекомпания: ТНТ
Производство: Россия
Жанр: Юмористическое тв-шоу
В ролях: Азамат Мусагалиев, Игорь Ласточкин, Ирина Чеснокова, Тимур Тания, Ольга Картункова, Александр Пташенчук, Максим Киселёв, Денис Дорохов, Заур Байцаев, Давид Цаллаев и др.
Описание:
Россия - богатейшая страна, в которой много нефти, газа и проблем. ТВ-Шоу на ТНТ "Однажды в России" не решает ни одной из них. Оно над ними смеется. Участники шоу разыгрывают скетчи на сцене перед зрителями. Их снимают камеры. Это шоу - реальное театральное действие, совмещенное с кинопроизводством.
Релиз от: ramzesII
Продолжительность: 00:49:43
Качество видео: SATRip
Субтитры: Отсутствуют
Видео: MPEG4, XviD, 720x400 (16:9), 25.000 fps, 1 800 Kbps (0.250 bit/pixel)
Аудио: MP3, 48.0 KHz, 2 ch, 128 Kbps, CBR

Mediainfo:

Код:
Общее
Полное имя                               : D:\[1]\Однажды в России\Однажды в России. Сезон 4. Выпуск 15 (2016.12.18).avi
Формат                                   : AVI
Формат/Информация                        : Audio Video Interleave
Размер файла                             : 689 Мбайт
Продолжительность                        : 49 м.
Общий поток                              : 1938 Кбит/сек
Программа кодирования                    : VirtualDubMod 1.5.10.3 (build 2550/release)
Библиотека кодирования                   : VirtualDubMod build 2550/release
Видео
Идентификатор                            : 0
Формат                                   : MPEG-4 Visual
Профиль формата                          : Advanced Simple@L5
Параметр BVOP формата                    : 1
Параметр QPel формата                    : Нет
Параметр GMC формата                     : Без точки перехода
Параметр матрицы формата                 : Default (H.263)
Идентификатор кодека                     : XVID
Идентификатор кодека/Подсказка           : XviD
Продолжительность                        : 49 м.
Битрейт                                  : 1800 Кбит/сек
Ширина                                   : 720 пикселей
Высота                                   : 400 пикселей
Соотношение сторон                       : 16:9
Частота кадров                           : 25,000 кадров/сек
Цветовое пространство                    : YUV
Субдискретизация насыщенности            : 4:2:0
Битовая глубина                          : 8 бит
Тип развёртки                            : Прогрессивная
Метод сжатия                             : С потерями
Бит/(Пиксели*Кадры)                      : 0.250
Размер потока                            : 640 Мбайт (93%)
Библиотека кодирования                   : XviD 67
Аудио
Идентификатор                            : 1
Формат                                   : MPEG Audio
Версия формата                           : Version 1
Профиль формата                          : Layer 3
Режим                                    : Joint stereo
Расширение режима                        : MS Stereo
Идентификатор кодека                     : 55
Идентификатор кодека/Подсказка           : MP3
Продолжительность                        : 49 м.
Вид битрейта                             : Постоянный
Битрейт                                  : 128 Кбит/сек
Каналы                                   : 2 канала
Частота                                  : 48,0 КГц
Метод сжатия                             : С потерями
Размер потока                            : 45,5 Мбайт (7%)
Выравнивание                             : Разделение по промежуткам
Продолжительность промежутка             : 40  мс. (1,00 видеокадр)
Время предзагрузки промежутка            : 500  мс.
Скриншоты:
       
Other forum [Profile] [PM]
Similar theme
Forum Topic Author Torrent Replies Last Post
./templates/default/images/folder_dl.gif Новинки (HD|DVD|BD|WEB|TV|SAT|PDTV|-Rip) Однажды в Стокгольме / Stockholm (Роберт Будро) [2018 г., драма, комедия, криминал, WEB-DLRip]DUB | iTunes kilmister777
1 | 0

0 | 546

0

2019-07-15 12:01
kilmister777 Latest
Display posts from previous:    
Reply to topic

The time now is: Today 13:12

All times are GMT + 3 Hours



You cannot post new topics in this forum
You cannot reply to topics in this forum
You cannot edit your posts in this forum
You cannot delete your posts in this forum
You cannot vote in polls in this forum
You cannot attach files in this forum
You cannot download files in this forum