Today is a free download without charge Download

Клитор-террорист / Terrors From The Clit (Rob Black / Extreme Associates) [1998 г., DP, Hardcore, Parody/Spoof, Feature, Gonzo, DVDRip] (Elle Devyne, Erika Lockett, Intrusion, Kelly Dean, Lizzy Borden, Nikki Love, Porsha, Byron Long, Chris Cannon)

Reply to topic
 
Author
Message

XP1971 ®

Торрент-статистика

Post 22-Nov-2016 14:17

[Quote]

- Клитор-террорист

Terrors From The Clit
-- Страна: USA
Режиссер: Rob Black
Год выпуска: 1998 г.
Качество: Далеко не айс
Студия: Extreme Associates
Продолжительность: 01:28:36
Оригинальный аудиопоток: английский
Жанр: DP, Hardcore, Parody/Spoof, Feature, Gonzo
Перевод: Профессиональный (двухголосый, закадровый)-В ролях:
Elle Devyne, Erika Lockett, Intrusion, Kelly Dean, Lizzy Borden, Nikki Love, Porsha, Byron Long, Chris Cannon, Michael Stefano, Tom Byron, Tony Eveready, Van Damage-Актёры по сценам:
* Scene 1. Elle Devyne, Van Damage
* Scene 2. Kelly Dean, Michael Stefano, Van Damage
* Scene 3. Erika Lockett, Lizzy Borden, 2 guys
* Scene 4. Intrusion, Porsha, guy
* Scene 5. Nikki Love, Byron Long, Tony Eveready-Описание на русском:
Пять жутких историй про ведьм, вампиров и зомби, рассказанных на ночь. Нечистая тоже, оказывается, может, хочет и умеет! Нормальные люди, конечно, шарахаются от всех этих воскресших мертвецов и вурдалаков. Но это только сначала!
Внешний вид, видите ли, у них странный:)
Зато трахаются они не хуже других!-
Контейнер: AVI
Аудио кодек: AC3
Видео кодек: XviD
Cубтитры: отсутствуют
Качество видео: DVDRip
Аудио: Audio Coding 3 | 48.0 KHz | 2 ch | 192.0 Kbps
Видео: MPEG-4 Visual | 704х528 | 1956 Кbps | 25.0 fps | 0.210 bit/pixel

Media Info

Общее
Полное имя : Terrors_From_The_Clit_[/*spam*/].avi
Формат : AVI
Формат/Информация : Audio Video Interleave
Размер файла : 1,34 Гбайт
Продолжительность : 1 ч. 28 м.
Общий поток : 2158 Кбит/сек
Программа кодирования : VirtualDubModRus 1.5.10.2 (build 2542/release)
Видео
Идентификатор : 0
Формат : MPEG-4 Visual
Профиль формата : Advanced [email protected]/* */
Параметр BVOP формата : 1
Параметр QPel формата : Нет
Параметр GMC формата : Без точки перехода
Параметр матрицы формата : Default (H.263)
Режим смешивания : Сжатый битовый поток
Идентификатор кодека : XVID
Идентификатор кодека/Подсказка : XviD
Продолжительность : 1 ч. 28 м.
Битрейт : 1956 Кбит/сек
Ширина : 704 пикселя
Высота : 528 пикселей
Соотношение сторон : 4:3
Частота кадров : 25,000 кадров/сек
Цветовое пространство : YUV
Субдискретизация насыщенности : 4:2:0
Битовая глубина : 8 бит
Тип развёртки : Прогрессивная
Метод сжатия : С потерями
Бит/(Пиксели*Кадры) : 0.210
Размер потока : 1,21 Гбайт (91%)
Библиотека кодирования : XviD 1.2.1 (UTC 2008-12-04)
Аудио
Идентификатор : 1
Формат : AC-3
Формат/Информация : Audio Coding 3
Расширение режима : CM (complete main)
Параметр Endianness формата : Big
Идентификатор кодека : 2000
Продолжительность : 1 ч. 28 м.
Вид битрейта : Постоянный
Битрейт : 192 Кбит/сек
Каналы : 2 канала
Расположение каналов : Front: L R
Частота : 48,0 КГц
Битовая глубина : 16 бит
Метод сжатия : С потерями
Размер потока : 122 Мбайт (9%)
Выравнивание : Разделение по промежуткам
Продолжительность промежутка : 40 мс. (1,00 видеокадр)
Время предзагрузки промежутка : 500 мс.

Скринлист

 
Display posts from previous:    
Reply to topic

The time now is: Today 18:57

All times are GMT + 3 Hours



You cannot post new topics in this forum
You cannot reply to topics in this forum
You cannot edit your posts in this forum
You cannot delete your posts in this forum
You cannot vote in polls in this forum
You cannot attach files in this forum
You cannot download files in this forum