Today is a free download without charge Download

Приветствие джаггера / The Blood of Heroes (Дэвид Уэбб Пиплз) [1989, Фантастика, Боевик, Спорт, DVDRip] [полная версия]

Reply to topic
 
Author
Message

Russian Mafia ®

Gender:

Longevity: 4 years 1 month

Posts: 339

Торрент-статистика

Post 10-Aug-2016 18:09

[Quote]

Приветствие джаггера / The Blood of Heroes Производство: Австралия, США / Handistom Investment, Kamisha Corporation, Kings Road Entertainment
Жанр: Фантастика, Боевик, Спорт
Режиссер: Дэвид Уэбб Пиплз
Актеры: Рутгер Хауэр, Делрой Линдо, Анна Катарина, Винсент Д’Онофрио, Ганди МакИнтайр, Джастин Монжо, Аарон Мартин, Джоан Чэнь, Кэйси Хуанг, Нгуен Дин
Описание:
Действие фильма разворачивается в следующем столетии после опустошительной войны. Единственным развлечением выживших после ядерной катастрофы людей стали жестокие соревнования — нечто среднее между рыцарскими турнирами и боями гладиаторов. Команда беспощадного Рутгера Хауэра рвется в высшую лигу, где выигрыш на самом деле является вопросом жизни и смерти.

Продолжительность: 01:39:32
Качество видео: DVDRip сэмпл
Перевод: Многоголосый закадровый, авторский
Видео: AVC/H.264, 720x544, ~1942 Kbps
Аудио 1: Русский, AC3, 2 ch, 192 Kbps, 48.0 kHz (МVO)
Аудио 2: Русский, AC3, 2 ch, 192 Kbps, 48.0 kHz (AVO, Д.Есарев [присутствует ненормативная лексика])
Аудио 3: Английский, AC3, 2 ch, 192 Kbps, 48.0 kHz (Оригинал)

Mediainfo:

Код:
General
Unique ID                                : 229028649222878693179423829527824132860 (0xAC4D5038C2954D9D8141580B13536AFC)
Complete name                            : F:\Downloads\Приветствие джаггера. 1989. NNMCLUB.mkv
Format                                   : Matroska
Format version                           : Version 4 / Version 2
File size                                : 1.75 GiB
Duration                                 : 1h 39mn
Overall bit rate                         : 2 520 Kbps
Encoded date                             : UTC 2016-08-07 21:56:03
Writing application                      : mkvmerge v7.0.0 ('Where We Going') 32bit built on Jun  9 2014 15:08:34
Writing library                          : libebml v1.3.0 + libmatroska v1.4.1
DURATION                                 : 01:39:32.384000000
NUMBER_OF_FRAMES                         : 186637
NUMBER_OF_BYTES                          : 143337216
_STATISTICS_WRITING_APP                  : mkvmerge v7.0.0 ('Where We Going') 32bit built on Jun  9 2014 15:08:34
_STATISTICS_WRITING_DATE_UTC             : 2016-08-07 21:56:03
_STATISTICS_TAGS                         : BPS DURATION NUMBER_OF_FRAMES NUMBER_OF_BYTES
Video
ID                                       : 1
Format                                   : AVC
Format/Info                              : Advanced Video Codec
Format profile                           : [url=mailto:High@L3.1]High@L3.1[/url]
Format settings, CABAC                   : Yes
Format settings, ReFrames                : 8 frames
Codec ID                                 : V_MPEG4/ISO/AVC
Duration                                 : 1h 39mn
Bit rate                                 : 1 942 Kbps
Width                                    : 720 pixels
Height                                   : 544 pixels
Display aspect ratio                     : 4:3
Frame rate mode                          : Constant
Frame rate                               : 25.000 fps
Color space                              : YUV
Chroma subsampling                       : 4:2:0
Bit depth                                : 8 bits
Scan type                                : Progressive
Bits/(Pixel*Frame)                       : 0.198
Stream size                              : 1.32 GiB (75%)
Title                                    : The blood of heroes
Writing library                          : x264 core 125 r2208 d9d2288
Encoding settings                        : cabac=1 / ref=8 / deblock=1:-1:-1 / analyse=0x3:0x133 / me=umh / subme=9 / psy=1 / psy_rd=1.00:0.10 / mixed_ref=1 / me_range=32 / chroma_me=1 / trellis=2 / 8x8dct=1 / cqm=0 / deadzone=21,11 / fast_pskip=0 / chroma_qp_offset=-3 / threads=6 / lookahead_threads=1 / sliced_threads=0 / nr=0 / decimate=1 / interlaced=0 / bluray_compat=0 / constrained_intra=0 / bframes=3 / b_pyramid=2 / b_adapt=2 / b_bias=0 / direct=3 / weightb=1 / open_gop=0 / weightp=2 / keyint=250 / keyint_min=25 / scenecut=40 / intra_refresh=0 / rc_lookahead=60 / rc=2pass / mbtree=1 / bitrate=1942 / ratetol=1.0 / qcomp=0.60 / qpmin=0 / qpmax=69 / qpstep=4 / cplxblur=20.0 / qblur=0.5 / ip_ratio=1.40 / aq=1:1.00
Language                                 : English
Default                                  : Yes
Forced                                   : No
Audio #1
ID                                       : 2
Format                                   : AC-3
Format/Info                              : Audio Coding 3
Mode extension                           : CM (complete main)
Format settings, Endianness              : Big
Codec ID                                 : A_AC3
Duration                                 : 1h 39mn
Bit rate mode                            : Constant
Bit rate                                 : 192 Kbps
Channel(s)                               : 2 channels
Channel positions                        : Front: L R
Sampling rate                            : 48.0 KHz
Bit depth                                : 16 bits
Compression mode                         : Lossy
Stream size                              : 137 MiB (8%)
Title                                    : Многоголосый закадровый
Language                                 : Russian
Default                                  : Yes
Forced                                   : No
Audio #2
ID                                       : 3
Format                                   : AC-3
Format/Info                              : Audio Coding 3
Mode extension                           : CM (complete main)
Format settings, Endianness              : Big
Codec ID                                 : A_AC3
Duration                                 : 1h 39mn
Bit rate mode                            : Constant
Bit rate                                 : 192 Kbps
Channel(s)                               : 2 channels
Channel positions                        : Front: L R
Sampling rate                            : 48.0 KHz
Bit depth                                : 16 bits
Compression mode                         : Lossy
Stream size                              : 137 MiB (8%)
Title                                    : Авторский, Д.Есарев
Language                                 : Russian
Default                                  : No
Forced                                   : No
Audio #3
ID                                       : 4
Format                                   : AC-3
Format/Info                              : Audio Coding 3
Mode extension                           : CM (complete main)
Format settings, Endianness              : Big
Codec ID                                 : A_AC3
Duration                                 : 1h 39mn
Bit rate mode                            : Constant
Bit rate                                 : 192 Kbps
Channel(s)                               : 2 channels
Channel positions                        : Front: L R
Sampling rate                            : 48.0 KHz
Bit depth                                : 16 bits
Compression mode                         : Lossy
Stream size                              : 137 MiB (8%)
Title                                    : Оригинал
Language                                 : English
Default                                  : No
Forced                                   : No

Скриншоты

       
       
Other forum [Profile] [PM]
Display posts from previous:    
Reply to topic

The time now is: Today 21:18

All times are GMT + 3 Hours



You cannot post new topics in this forum
You cannot reply to topics in this forum
You cannot edit your posts in this forum
You cannot delete your posts in this forum
You cannot vote in polls in this forum
You cannot attach files in this forum
You cannot download files in this forum