Today is a free download without charge Download

Олимпиус Инферно (Игорь Волошин) [2009, боевик, драма, DVDRip]

Reply to topic
 
Author
Message

Russian Mafia ®

Gender:

Longevity: 4 years 5 months

Posts: 339

Торрент-статистика

Post 08-Aug-2016 18:21

[Quote]

Производство: Россия, Первый канал
Жанр: Боевик, драма
Продолжительность: 01:29:39
Режиссер: Игорь Волошин
Актеры: Полина Филоненко, Дэвид Генри, Вадим Цаллати, Адгур Малия, Елена Храмова, Артур Гургенян, Венера Скверия, Адгур Джения, Сергей Сангулия
Субтитры: Отсутствуют
Описание:
08.08.08. Молодой энтомолог из США, Майкл, и его подруга, московская журналистка Женя, приезжают в Южную Осетию для съёмок фильма о редком виде бабочек. Но этой же ночью грузинские войска нападают на Южную Осетию. Камеры Майкла снимают начало операции. Наши герои понимают, что в их руках оказались доказательства, которые поставят точку в наступившей информационной войне. Но об этом узнают и грузинские спецслужбы. Чтобы донести миру правду, Майклу и Жене нужно прорваться через оккупированную территорию в разрушенный, но не сломленный Цхинвал...

Качество видео: DVDRip
Видеокодек: XviD
Битрейт видео: 1918 кбит/c
Размер кадра: 704x384
Аудиокодек: AC3 2.0
Битрейт аудио: 256 кбит/c

MediaInfo:

Общее
Полное имя : D:\Olimpius.Inferno.2009.O.DVDRip_INTERFILM.avi
Формат : AVI
Формат/Информация : Audio Video Interleave
Размер файла : 1,37 Гбайт
Продолжительность : 1 ч. 29 м.
Общий поток : 2184 Кбит/сек
Программа кодирования : VirtualDubMod 1.5.10.2 (build 2540/release)
Библиотека кодирования : VirtualDubMod build 2540/release
Видео
Идентификатор : 0
Формат : MPEG-4 Visual
Профиль формата : Advanced Simple@L5
Параметр BVOP формата : 2
Параметр QPel формата : Нет
Параметр GMC формата : Без точки перехода
Параметр матрицы формата : Default (MPEG)
Режим смешивания : Сжатый битовый поток
Идентификатор кодека : XVID
Идентификатор кодека/Подсказка : XviD
Продолжительность : 1 ч. 29 м.
Битрейт : 1918 Кбит/сек
Ширина : 704 пикселя
Высота : 384 пикселя
Соотношение сторон : 1,85:1
Частота кадров : 25,000 кадров/сек
Цветовое пространство : YUV
Субдискретизация насыщенности : 4:2:0
Битовая глубина : 8 бит
Тип развёртки : Прогрессивная
Метод сжатия : С потерями
Бит/(Пиксели*Кадры) : 0.284
Размер потока : 1,20 Гбайт (88%)
Библиотека кодирования : XviD 1.2.1 (UTC 2008-12-04)
Аудио
Идентификатор : 1
Формат : AC-3
Формат/Информация : Audio Coding 3
Расширение режима : CM (complete main)
Параметр Endianness формата : Big
Идентификатор кодека : 2000
Продолжительность : 1 ч. 29 м.
Вид битрейта : Постоянный
Битрейт : 256 Кбит/сек
Каналы : 2 канала
Расположение каналов : Front: L R
Частота : 48,0 КГц
Битовая глубина : 16 бит
Метод сжатия : С потерями
Размер потока : 164 Мбайт (12%)
Выравнивание : Разделение по промежуткам
Продолжительность промежутка : 40 мс. (1,00 видеокадр)
Время предзагрузки промежутка : 500 мс.

Скриншоты

         
Other forum [Profile] [PM]
Display posts from previous:    
Reply to topic

The time now is: Today 14:48

All times are GMT + 3 Hours



You cannot post new topics in this forum
You cannot reply to topics in this forum
You cannot edit your posts in this forum
You cannot delete your posts in this forum
You cannot vote in polls in this forum
You cannot attach files in this forum
You cannot download files in this forum