Today is a free download without charge Download

Своя игра (09.04.2016) SATRip

Reply to topic
 
Author
Message

KottoSOFT ®

Longevity: 5 years

Posts: 37

Торрент-статистика

Post 09-Apr-2016 10:23

[Quote]

Своя игра (09.04.2016) SATRip- Телекомпания: НТВ
Жанр: Интеллектуальное шоу
Описание:В игре принимают участие 3 игрока. Их основная цель — отвечать на вопросы и зарабатывать как можно большее число очков. В начале игры у каждого из игроков на счету 0 очков. Каждое очко в игре равняется 1 рублю. Суть игры заключается в том, что три участника отвечают на вопросы различной стоимости, пытаясь опередить друг друга. игра состоит из четырёх раундов — трёх основных и финального. Каждый из основных раундов содержит 30 вопросов — 6 тем по 5 вопросов в каждой. Каждый вопрос темы имеет свою стоимость — в первом раунде она варьируется от 100 до 500 рублей, во втором — от 200 до 1000, и в третьем — от 300 до 1500. Чем выше цена вопроса, тем он сложнее. Начинается игра с того, что игрок за центральным игровым столом выбирает один из 30 вопросов. Вопрос появляется на экране и зачитывается вслух ведущим, и любой из игроков может нажать на кнопку и дать ответ на него. Игроки могут нажимать на кнопку не в любой момент после того, как вопрос был выведен на экран, а только после сигнала (в качестве сигнала выступает лампочка, которая находится за спиной ведущего и не видна телезрителям; сигнал включается одновременно с последним слогом вопроса, но, поскольку делает это человек, лампочка может загореться и раньше); если игрок жмёт до сигнала, то фиксируется фальстарт, и его кнопка блокируется примерно на две секунды. Далее ведущий определяет, прав ли отвечающий. В случае правильного ответа очки начисляются на счёт игрока, а игрок получает право выбрать следующий вопрос. В случае неверного ответа очки снимаются со счёта отвечавшего. В этом случае оставшиеся игроки имеют право нажать кнопку и дать свой ответ на прозвучавший вопрос. Если в течение трёх секунд на вопрос никто не отвечает, то ведущий делает это сам, а следующий вопрос выбирает тот же игрок, что выбирал и предыдущий. Каждый раунд продолжается до тех пор, пока в нём не будут разыграны все вопросы или пока не истечёт отведённое на него время (10 минут). В последнем случае перед выбором очередного вопроса в игре звучит гонг, обозначающий конец раунда. С января 2005 года некоторые неотвеченные вопросы в игре при монтаже вырезаются.Ведущий: Пётр Кулешов
Продолжительность: 00:40:24
Качество видео: SATRip
Видео: Xvid, 720x448, ~2205 Кбит/сек
Аудио: MP3, 2 ch, 128 Кбит/сек, CBR

Mediainfo

Код:
Общее
Полное имя                               : F:\видео\фильмы\Своя игра\Своя игра.2016.04.09.SATRip.avi
Формат                                   : AVI
Формат/Информация                        : Audio Video Interleave
Размер файла                             : 685 Мбайт
Продолжительность                        : 40 м.
Общий поток                              : 2343 Кбит/сек
Программа кодирования                    : VirtualDubModRus 1.5.10.2 (build 2542/release)
Библиотека кодирования                   : VirtualDubMod build 2542/release
Видео
Идентификатор                            : 0
Формат                                   : MPEG-4 Visual
Профиль формата                          : Advanced Simple@L5
Параметр BVOP формата                    : 2
Параметр QPel формата                    : Нет
Параметр GMC формата                     : Без точки перехода
Параметр матрицы формата                 : Default (H.263)
Идентификатор кодека                     : XVID
Идентификатор кодека/Подсказка           : XviD
Продолжительность                        : 40 м.
Битрейт                                  : 2205 Кбит/сек
Ширина                                   : 720 пикселей
Высота                                   : 448 пикселей
Соотношение сторон                       : 16:10
Частота кадров                           : 25,000 кадров/сек
Цветовое пространство                    : YUV
Субдискретизация насыщенности            : 4:2:0
Битовая глубина                          : 8 бит
Тип развёртки                            : Прогрессивная
Метод сжатия                             : С потерями
Бит/(Пиксели*Кадры)                      : 0.273
Размер потока                            : 645 Мбайт (94%)
Библиотека кодирования                   : XviD 1.2.1 (UTC 2008-12-04)
Аудио
Идентификатор                            : 1
Формат                                   : MPEG Audio
Версия формата                           : Version 1
Профиль формата                          : Layer 3
Идентификатор кодека                     : 55
Идентификатор кодека/Подсказка           : MP3
Продолжительность                        : 40 м.
Вид битрейта                             : Постоянный
Битрейт                                  : 128 Кбит/сек
Каналы                                   : 2 канала
Частота                                  : 48,0 КГц
Метод сжатия                             : С потерями
Размер потока                            : 37,4 Мбайт (5%)
Выравнивание                             : Соединение по промежуткам
Продолжительность промежутка             : 40  мс. (1,00 видеокадр)
Время предзагрузки промежутка            : 504  мс.
Библиотека кодирования                   : LAME3.99r
Настройки программы                      : -m s -V 4 -q 2 -lowpass 17 -b 128
Скриншоты:
       

_________________
Беру чужие сборки Windows, обновляю и вот они уже мои...
Other forum [Profile] [PM]
Display posts from previous:    
Reply to topic

The time now is: Today 03:40

All times are GMT + 3 Hours



You cannot post new topics in this forum
You cannot reply to topics in this forum
You cannot edit your posts in this forum
You cannot delete your posts in this forum
You cannot vote in polls in this forum
You cannot attach files in this forum
You cannot download files in this forum