Today is a free download without charge Download

Голодные игры: Сойка-пересмешница. Часть II / The Hunger Games: Mockingjay - Part 2 (Френсис Лоуренс) [2015 г., Фантастика, боевик, приключения, BDRip 720p LQ] DUB |Line

Reply to topic
DL-List and Torrent activity
Size:  4.24 GB   |    Registered:  3 years 7 months   |    Completed:  21 time
Seeders:  1  [  0 KB/s  ]   Leechers:  30  [  0 KB/s  ]   Show peers in full details
 
 
 
 
Author
Message

Theseus ®

Gender:

Longevity: 8 years 4 months

Posts: 2053

Торрент-статистика

Post 19-Mar-2016 16:48

[Quote]

Голодные игры: Сойка-пересмешница. Часть II / The Hunger Games: Mockingjay - Part 2- Год выпуска: 2015
Страна: США
Жанр: Фантастика, боевик, приключения
Продолжительность: 02:16:57
Перевод: Профессиональный (полное дублирование) [Центральный канал line]
Режиссер: Френсис Лоуренс-В ролях: Дженнифер Лоуренс, Джош Хатчерсон, Лиам Хемсворт, Вуди Харрельсон, Дональд Сазерленд, Филип Сеймур, Хоффман Джулианна Мур, Уиллоу Шилд,с Сэм Клафлин, Элизабет Бэнкс-Описание: Китнисс Эвердин и своенравный Пит Мелларк пытаются выиграть гражданскую войну между самодержавным Капитолием и истерзанными войной районами Панема…--Качество видео: BDRip 720p LQ
Формат: MKV
Видео кодек: x.264
Аудио кодек: AC3
Видео: AVC, 1280x536 (2.40:1), 3150 kb/s, 23.976 fps
Аудио #1: AC-3, 48.0 KHz, 6 ch, 640 Kbps, CBR | Русский дубляж
Аудио #2: AC-3, 48.0 KHz, 6 ch, 640 Kbps, CBR| Английский, оригинал
Cубтитры: Английские

MediaInfo:

Общее
Уникальный идентификатор : 192966950927230534028542741948435434173 (0x912C1539610C95B586D8DC621FE28ABD)
Полное имя : The.Hunger.Games.Mockingjay-Part.2.D.BDRip.720p.mkv
Формат : Matroska
Версия формата : Version 4 / Version 2
Размер файла : 4,24 Гбайт
Продолжительность : 2 ч. 16 м.
Общий поток : 4429 Кбит/сек
Название фильма : Голодные игры: Сойка-пересмешница. Часть II / The Hunger Games: Mockingjay - Part 2 (2015)
Дата кодирования : UTC 2016-03-19 12:25:36
Программа кодирования : mkvmerge v8.3.0 ('Over the Horizon') 64bit
Библиотека кодирования : libebml v1.3.1 + libmatroska v1.4.2
Attachements : cover.jpg
Видео
Идентификатор : 1
Формат : AVC
Формат/Информация : Advanced Video Codec
Профиль формата : [url=mailto:High@L4.1]High@L4.1[/url]
Параметр CABAC формата : Да
Параметр ReFrames формата : 5 кадров
Идентификатор кодека : V_MPEG4/ISO/AVC
Продолжительность : 2 ч. 16 м.
Битрейт : 3150 Кбит/сек
Ширина : 1280 пикселей
Высота : 536 пикселей
Соотношение сторон : 2,40:1
Режим частоты кадров : Постоянный
Частота кадров : 23,976 кадра/сек
Цветовое пространство : YUV
Субдискретизация насыщенности : 4:2:0
Битовая глубина : 8 бит
Тип развёртки : Прогрессивная
Бит/(Пиксели*Кадры) : 0.191
Размер потока : 2,93 Гбайт (69%)
Библиотека кодирования : x264 core 148 r2638kMod 7599210
Настройки программы : cabac=1 / ref=5 / deblock=1:-3:-3 / analyse=0x3:0x133 / me=umh / subme=9 / psy=1 / fade_compensate=0.60 / psy_rd=1.00:0.00 / mixed_ref=1 / me_range=64 / chroma_me=1 / trellis=1 / 8x8dct=1 / cqm=0 / deadzone=21,11 / fast_pskip=1 / chroma_qp_offset=-2 / threads=6 / lookahead_threads=1 / sliced_threads=0 / nr=0 / decimate=1 / interlaced=0 / bluray_compat=0 / constrained_intra=0 / fgo=0 / bframes=4 / b_pyramid=2 / b_adapt=2 / b_bias=0 / direct=3 / weightb=1 / open_gop=0 / weightp=2 / keyint=230 / keyint_min=23 / scenecut=40 / intra_refresh=0 / rc_lookahead=50 / rc=2pass / mbtree=1 / bitrate=3150 / ratetol=1.3 / qcomp=0.60 / qpmin=0 / qpmax=69 / qpstep=4 / cplxblur=20.0 / qblur=0.5 / vbv_maxrate=30000 / vbv_bufsize=40000 / nal_hrd=none / filler=0 / ip_ratio=1.40 / aq=1:1.00
Default : Да
Forced : Нет
Цветовой диапазон : Limited
Основные цвета : BT.709
Характеристики трансфера : BT.709
Коэффициенты матрицы : BT.709
Аудио #1
Идентификатор : 2
Формат : AC-3
Формат/Информация : Audio Coding 3
Расширение режима : CM (complete main)
Параметр Endianness формата : Big
Идентификатор кодека : A_AC3
Продолжительность : 2 ч. 16 м.
Вид битрейта : Постоянный
Битрейт : 640 Кбит/сек
Каналы : 6 каналов
Расположение каналов : Front: L C R, Side: L R, LFE
Частота : 48,0 КГц
Метод сжатия : С потерями
Размер потока : 627 Мбайт (14%)
Язык : Russian
Default : Да
Forced : Нет
Аудио #2
Идентификатор : 3
Формат : AC-3
Формат/Информация : Audio Coding 3
Расширение режима : CM (complete main)
Параметр Endianness формата : Big
Идентификатор кодека : A_AC3
Продолжительность : 2 ч. 16 м.
Вид битрейта : Постоянный
Битрейт : 640 Кбит/сек
Каналы : 6 каналов
Расположение каналов : Front: L C R, Side: L R, LFE
Частота : 48,0 КГц
Метод сжатия : С потерями
Размер потока : 627 Мбайт (14%)
Язык : English
Default : Нет
Forced : Нет
Текст
Идентификатор : 4
Формат : UTF-8
Идентификатор кодека : S_TEXT/UTF8
Идентификатор кодека/Информация : UTF-8 Plain Text
Язык : English
Default : Нет
Forced : Нет
Скриншоты:
       

Дополнительные скриншоты:

       
- -
[darkos.club].t279901.torrent 
Torrent: Registered   [ 2016-03-19 16:48 ]

Download

22 KB

Воспроизвести онлайн

Status: checked
Completed: 21 times
Size: 4.24 GB, InfoHash (Google it!)
Score:  5 (vote: 2)
Default: 2  Thank you   (list)
 

_________________
Other forum [Profile] [PM]
Display posts from previous:    
Reply to topic

The time now is: Today 00:01

All times are GMT + 3 Hours



You cannot post new topics in this forum
You cannot reply to topics in this forum
You cannot edit your posts in this forum
You cannot delete your posts in this forum
You cannot vote in polls in this forum
You cannot attach files in this forum
You can download files in this forum