Today is a free download without charge Download

Непрощенные (2009) DVDRip

Reply to topic
 
Author
Message

Region_13 ®

Gender:

Longevity: 5 years 8 months

Posts: 783

Location: Мальдивы

Торрент-статистика

Post 15-Feb-2016 10:38

[Quote]

Непрощённые - Год выпуска: 2009
Производство: Россия, группа компаний GP
Жанр: Драма, криминал
Описание фильма:
Их шестеро: Андрей, Лекс, Сильвер, Лис, Дин и Дина — молодые, отчаянные, готовые на любой риск. Алиса — хозяйка злачного заведения — предлагает им хорошие деньги. Но «деньги явно не легкие» — честно предупреждает Алиса. Почему они соглашаются? У каждого за плечами свой полный криминальных приключений путь к этому решению. Поначалу не связанные друг с другом герои, волею своих лихих судеб постепенно сближаются, пока не оказываются вместе в Алисином деле. Они не жалеют, что жизнь сложилась именно так. Им нравится свобода на грани фола. И они не ищут прощения — даже перед лицом смерти…
Режиссер: Клим Шипенко
Актеры: Татьяна Васильева, Михаил Бабичев, Ксения Буравская, Юлия Гоманюк, Константин Демидов, Олег Долин, Анатолий Лобоцкий, Ольга Ломоносова, Марина Правкина, Евгений Пронин, Владимир Симонов, Константин Соловьев, Борис Хвошнянский, Ольга Ковалева, Игорь Мещерин
Продолжительность: 01:47:21
Качество видео: DVDRip


Видео: XviD, 1 493 Kbps, 704 x 288 pixels, 25.000 fps, Bits/(Pixel*Frame) : 0.295
Аудио: AC-3 , 320 Kbps, 6 channels, 48.0 KHz

MediaInfo:

General
Complete name : D:\РЕСТАВРАЦИЯ\Neproschennye.2009.O.DVDRip.avi
Format : AVI
Format/Info : Audio Video Interleave
File size : 1.37 GiB
Duration : 1h 47mn
Overall bit rate : 1 822 Kbps
Movie name : Neproschennye (2009)
Director : ELEKTRI4KA [uniongang.ru]
Writing application : VirtualDubMod 1.5.10.2 (build 2540/release)
Video
ID : 0
Format : MPEG-4 Visual
Format profile : Advanced Simple@L5
Format settings, BVOP : 3
Format settings, QPel : No
Format settings, GMC : No warppoints
Format settings, Matrix : Custom
Codec ID : XVID
Codec ID/Hint : XviD
Duration : 1h 47mn
Bit rate : 1 493 Kbps
Width : 704 pixels
Height : 288 pixels
Display aspect ratio : 2.40:1
Frame rate : 25.000 fps
Color space : YUV
Chroma subsampling : 4:2:0
Bit depth : 8 bits
Scan type : Progressive
Compression mode : Lossy
Bits/(Pixel*Frame) : 0.295
Stream size : 1.12 GiB (82%)
Writing library : XviD 1.2.0.dev47 (UTC 2006-11-01)
Audio
ID : 1
Format : AC-3
Format/Info : Audio Coding 3
Mode extension : CM (complete main)
Format settings, Endianness : Big
Codec ID : 2000
Duration : 1h 47mn
Bit rate mode : Constant
Bit rate : 320 Kbps
Channel(s) : 6 channels
Channel positions : Front: L C R, Side: L R, LFE
Sampling rate : 48.0 KHz
Bit depth : 16 bits
Compression mode : Lossy
Stream size : 246 MiB (18%)
Alignment : Split accross interleaves
Interleave, duration : 40 ms (1.00 video frame)
Interleave, preload duration : 500 ms
Скриншоты:
       

_________________
Other forum [Profile] [PM]
Display posts from previous:    
Reply to topic

The time now is: Today 22:13

All times are GMT + 3 Hours



You cannot post new topics in this forum
You cannot reply to topics in this forum
You cannot edit your posts in this forum
You cannot delete your posts in this forum
You cannot vote in polls in this forum
You cannot attach files in this forum
You cannot download files in this forum